Вы используете незарегистрированную версию компонента "Вкладки"!

Поиск

(Avant-Garde, Vocal) [CD] Roots of Communication (Robert Morgenthaler, Jean-Jacques Pedretti, Lucas Niggli) & Erika Stucky - Wunderland - 2005, FLAC (tracks+.cue), lossless

(Avant-Garde, Vocal) [CD] Roots of Communication (Robert Morgenthaler, Jean-Jacques Pedretti, Lucas Niggli) & Erika Stucky - Wunderland - 2005, FLAC (tracks+.cue), lossless
Треклист:
Roots of Communication & Erika Stucky / Wunderland
Жанр: Avant-Garde, Vocal
Носитель: CD
Страна-производитель диска: Switzerland
Год издания: 2005
Издатель (лейбл): Ethnomics
Номер по каталогу: 2005 CD
Аудиокодек: FLAC (*.flac)
Тип рипа: tracks+.cue
Битрейт аудио: lossless
Продолжительность: 55:18
Источник (релизер): я
Наличие сканов в содержимом раздачи: да
Треклист:
01. Proposition (Morgenthaler) 1:36
02. Pas cher (Morgenthaler) 3:59
03. Mermaid (Newman / Stucky) 4:22
04. Zäuerli (Stucky) 1:54
05. Sottoléh (Stucky) 4:57
06. Alpsegen (Stucky) 3:55
07. Sudan Boots (Morgenthaler / Stucky) 5:08
08. Secret Room / Haboub (Pedretti / Morgenthaler) 6:45
09. Z’Stückisch (Stucky) 2:48
10. Rolanpont (Morgenthaler / Stucky) 4:56
11. So You Say (Stucky) 6:07
12. Mystic Dance (Morgenthaler) 7:17
13. Der Jules (Stucky) 1:34
Recorded live on the road 1998-2004.
Erika Stucky – Vocal, Accordion
Robert Morgenthaler – Trombone, Alphorn, Shells
Jean-Jacques Pedretti – Trombone, Alphorn, Shells
Lucas Niggli – Drums, Percussion
 
Лог создания рипа
Exact Audio Copy V1.0 beta 3 from 29. August 2011
EAC extraction logfile from 12. December 2013, 14:37
Roots of Communication & Erika Stucky / Wunderland
Used drive : SlimtypeeNAU508 5 Adapter: 1 ID: 0
Read mode : Secure
Utilize accurate stream : Yes
Defeat audio cache : Yes
Make use of C2 pointers : No
Read offset correction : 6
Overread into Lead-In and Lead-Out : No
Fill up missing offset samples with silence : Yes
Delete leading and trailing silent blocks : No
Null samples used in CRC calculations : Yes
Used interface : Native Win32 interface for Win NT & 2000
Gap handling : Appended to previous track
Used output format : User Defined Encoder
Selected bitrate : 768 kBit/s
Quality : High
Add ID3 tag : No
Command line compressor : C:\Program Files (x86)\Exact Audio Copy\Flac\flac.exe
Additional command line options : -8 -V -T "ARTIST=%artist%" -T "TITLE=%title%" -T "ALBUM=%albumtitle%" -T "DATE=%year%" -T "TRACKNUMBER=%tracknr%" -T "GENRE=%genre%" -T "PERFORMER=%albuminterpret%" -T "COMPOSER=%composer%" %haslyrics%--tag-from-file=LYRICS="%lyricsfile%"%haslyrics% -T "ALBUMARTIST=%albumartist%" -T "DISCNUMBER=%cdnumber%" -T "TOTALDISCS=%totalcds%" -T "TOTALTRACKS=%numtracks%" -T "COMMENT=%comment%" %source% -o %dest%
TOC of the extracted CD
Track | Start | Length | Start sector | End sector
---------------------------------------------------------
1 | 0:00.00 | 1:36.17 | 0 | 7216
2 | 1:36.17 | 3:58.53 | 7217 | 25119
3 | 5:34.70 | 4:21.67 | 25120 | 44761
4 | 9:56.62 | 1:53.55 | 44762 | 53291
5 | 11:50.42 | 4:56.62 | 53292 | 75553
6 | 16:47.29 | 3:55.23 | 75554 | 93201
7 | 20:42.52 | 5:08.25 | 93202 | 116326
8 | 25:51.02 | 6:45.28 | 116327 | 146729
9 | 32:36.30 | 2:48.05 | 146730 | 159334
10 | 35:24.35 | 4:56.11 | 159335 | 181545
11 | 40:20.46 | 6:07.06 | 181546 | 209076
12 | 46:27.52 | 7:16.56 | 209077 | 241832
13 | 53:44.33 | 1:33.46 | 241833 | 248853
Track 1
Filename C:\EAC rips\01 - Proposition.wav
Pre-gap length 0:00:02.00
Peak level 46.8 %
Extraction speed 0.8 X
Track quality 100.0 %
Test CRC F9C4D9ED
Copy CRC F9C4D9ED
Track not present in AccurateRip database
Copy OK
Track 2
Filename C:\EAC rips\02 - Pas cher.wav
Peak level 64.5 %
Extraction speed 1.0 X
Track quality 99.9 %
Test CRC 72432DD9
Copy CRC 72432DD9
Track not present in AccurateRip database
Copy OK
Track 3
Filename C:\EAC rips\03 - Mermaid.wav
Peak level 61.7 %
Extraction speed 1.2 X
Track quality 100.0 %
Test CRC DA037B99
Copy CRC DA037B99
Track not present in AccurateRip database
Copy OK
Track 4
Filename C:\EAC rips\04 - Zäuerli.wav
Peak level 48.4 %
Extraction speed 1.1 X
Track quality 100.0 %
Test CRC E47069B6
Copy CRC E47069B6
Track not present in AccurateRip database
Copy OK
Track 5
Filename C:\EAC rips\05 - Sottoléh.wav
Peak level 95.3 %
Extraction speed 1.3 X
Track quality 99.9 %
Test CRC D7A788BA
Copy CRC D7A788BA
Track not present in AccurateRip database
Copy OK
Track 6
Filename C:\EAC rips\06 - Alpsegen.wav
Peak level 81.7 %
Extraction speed 1.5 X
Track quality 100.0 %
Test CRC E9D5EC17
Copy CRC E9D5EC17
Track not present in AccurateRip database
Copy OK
Track 7
Filename C:\EAC rips\07 - Sudan Boots.wav
Peak level 73.5 %
Extraction speed 1.6 X
Track quality 100.0 %
Test CRC 3E352AD3
Copy CRC 3E352AD3
Track not present in AccurateRip database
Copy OK
Track 8
Filename C:\EAC rips\08 - Secret Room - Haboub.wav
Peak level 82.2 %
Extraction speed 1.7 X
Track quality 99.9 %
Test CRC D1FF19AB
Copy CRC D1FF19AB
Track not present in AccurateRip database
Copy OK
Track 9
Filename C:\EAC rips\09 - Z'Stückisch.wav
Pre-gap length 0:00:01.10
Peak level 39.3 %
Extraction speed 1.7 X
Track quality 100.0 %
Test CRC EF36B48C
Copy CRC EF36B48C
Track not present in AccurateRip database
Copy OK
Track 10
Filename C:\EAC rips\10 - Rolanpont.wav
Pre-gap length 0:00:00.17
Peak level 84.2 %
Extraction speed 1.7 X
Track quality 99.9 %
Test CRC 6C77C72F
Copy CRC 6C77C72F
Track not present in AccurateRip database
Copy OK
Track 11
Filename C:\EAC rips\11 - So You Say.wav
Pre-gap length 0:00:00.43
Peak level 96.5 %
Extraction speed 2.0 X
Track quality 100.0 %
Test CRC 414FA23C
Copy CRC 414FA23C
Track not present in AccurateRip database
Copy OK
Track 12
Filename C:\EAC rips\12 - Mystic Dance.wav
Peak level 85.8 %
Extraction speed 2.2 X
Track quality 100.0 %
Test CRC 153DF478
Copy CRC 153DF478
Track not present in AccurateRip database
Copy OK
Track 13
Filename C:\EAC rips\13 - Der Jules.wav
Pre-gap length 0:00:00.51
Peak level 37.4 %
Extraction speed 1.3 X
Track quality 99.8 %
Test CRC 4A58C986
Copy CRC 4A58C986
Track not present in AccurateRip database
Copy OK
None of the tracks are present in the AccurateRip database
No errors occurred
End of status report
---- CUETools DB Plugin V2.1.4
[CTDB TOCID: ZJ.LFDwUFqOVTAafys80BPWXeww-] disk not present in database
Submit result: ZJ.LFDwUFqOVTAafys80BPWXeww- has been uploaded
==== Log checksum 96D18C55DEE7590B7472AEC4737A98056F4BDF81BDDCF8C7B8B4F0AC2A607D80 ====
 
Содержание индексной карты (.CUE)
REM GENRE Jazz
REM DATE 2005
REM DISCID B50CF60D
REM COMMENT "ExactAudioCopy v1.0b3"
PERFORMER "Roots of Communication & Erika Stucky"
TITLE "Wunderland"
FILE "01 - Proposition.wav" WAVE
TRACK 01 AUDIO
TITLE "Proposition"
PERFORMER "Roots of Communication & Erika Stucky"
INDEX 01 00:00:00
FILE "02 - Pas cher.wav" WAVE
TRACK 02 AUDIO
TITLE "Pas cher"
PERFORMER "Roots of Communication & Erika Stucky"
INDEX 01 00:00:00
FILE "03 - Mermaid.wav" WAVE
TRACK 03 AUDIO
TITLE "Mermaid"
PERFORMER "Roots of Communication & Erika Stucky"
INDEX 01 00:00:00
FILE "04 - Zäuerli.wav" WAVE
TRACK 04 AUDIO
TITLE "Zäuerli"
PERFORMER "Roots of Communication & Erika Stucky"
INDEX 01 00:00:00
FILE "05 - Sottoléh.wav" WAVE
TRACK 05 AUDIO
TITLE "Sottoléh"
PERFORMER "Roots of Communication & Erika Stucky"
INDEX 01 00:00:00
FILE "06 - Alpsegen.wav" WAVE
TRACK 06 AUDIO
TITLE "Alpsegen"
PERFORMER "Roots of Communication & Erika Stucky"
INDEX 01 00:00:00
FILE "07 - Sudan Boots.wav" WAVE
TRACK 07 AUDIO
TITLE "Sudan Boots"
PERFORMER "Roots of Communication & Erika Stucky"
INDEX 01 00:00:00
FILE "08 - Secret Room - Haboub.wav" WAVE
TRACK 08 AUDIO
TITLE "Secret Room / Haboub"
PERFORMER "Roots of Communication & Erika Stucky"
INDEX 01 00:00:00
TRACK 09 AUDIO
TITLE "Z'Stückisch"
PERFORMER "Roots of Communication & Erika Stucky"
INDEX 00 06:44:18
FILE "09 - Z'Stückisch.wav" WAVE
INDEX 01 00:00:00
TRACK 10 AUDIO
TITLE "Rolanpont"
PERFORMER "Roots of Communication & Erika Stucky"
INDEX 00 02:47:63
FILE "10 - Rolanpont.wav" WAVE
INDEX 01 00:00:00
TRACK 11 AUDIO
TITLE "So You Say"
PERFORMER "Roots of Communication & Erika Stucky"
INDEX 00 04:55:43
FILE "11 - So You Say.wav" WAVE
INDEX 01 00:00:00
FILE "12 - Mystic Dance.wav" WAVE
TRACK 12 AUDIO
TITLE "Mystic Dance"
PERFORMER "Roots of Communication & Erika Stucky"
INDEX 01 00:00:00
TRACK 13 AUDIO
TITLE "Der Jules"
PERFORMER "Roots of Communication & Erika Stucky"
INDEX 00 07:16:05
FILE "13 - Der Jules.wav" WAVE
INDEX 01 00:00:00
Any questions -> support@pro-jazz.com. По всем вопросам пишите -> support@pro-jazz.com
21:24
132
Нет комментариев. Ваш будет первым!