Вы используете незарегистрированную версию компонента "Вкладки"!

Поиск

(Avant-Garde Jazz, Jazz-Rock, Psychedelic) [CD] Francesco Cusa "Skrunch" - Jacques Lacan, A True Musical Story - 2009, FLAC (tracks+.cue), lossless

(Avant-Garde Jazz, Jazz-Rock, Psychedelic) [CD] Francesco Cusa "Skrunch" - Jacques Lacan, A True Musical Story - 2009, FLAC (tracks+.cue), lossless
Треклист:
Francesco Cusa "Skrunch" - Jacques Lacan, A True Musical Story
Жанр: Avant-Garde Jazz, Jazz-Rock, Psychedelic
Носитель: CD
Страна-производитель диска: Италия
Год издания: 2009
Издатель (лейбл): Improvvisatore Involontario
Номер по каталогу: ii 0017
Аудиокодек: FLAC (*.flac)
Тип рипа: tracks+.cue
Битрейт аудио: lossless
Продолжительность: 49:30
Источник (релизер): lindinalwa (what)
Наличие сканов в содержимом раздачи: да
Треклист:
01. Lacan Boys (7:06)
02. Lacan on the Bitch (7:25)
03. Le can can de Lacan (5:41)
04. Le Lancome de Lacan (7:02)
05. Lacan Boys (4:11)
06. Lacan on the Bitch (4:23)
07. Le can can de Lacan (4:11)
08. Le Lancome de Lacan (9:31)
Состав:
Electric Skrunch (#1-4):
Francesco Cusa - drums
Dario Defilippo - percussion
Carlo Natoli - baritone guitar
Paolo Sorge - electric guitar
Beppe Scardino - baritone saxophone
Piero Bittolo Bon - alto saxophone
Vocal Skrunch (#5-8):
Francesco Cusa - drums
Giacomo Ancillotto - guitar, electronics
Marta Raviglia, Gaia Mattiuzzi - vocals, electronics
Recorded at Analogic Audio Argent, Ragusa (Italy) in August - September 2009.
Music composed by Francesco Cusa.
 
Лог создания рипа
Exact Audio Copy V0.99 prebeta 5 from 4. May 2009
EAC extraction logfile from 7. December 2011, 20:05
Francesco Cusa Skrunch electric/vocal / Jacques Lacan, a true musical story
Used drive : Optiarc DVD RW AD-7243S Adapter: 0 ID: 1
Read mode : Secure
Utilize accurate stream : Yes
Defeat audio cache : Yes
Make use of C2 pointers : No
Read offset correction : 48
Overread into Lead-In and Lead-Out : No
Fill up missing offset samples with silence : Yes
Delete leading and trailing silent blocks : No
Null samples used in CRC calculations : Yes
Used interface : Native Win32 interface for Win NT & 2000
Gap handling : Appended to previous track
Used output format : User Defined Encoder
Selected bitrate : 768 kBit/s
Quality : High
Add ID3 tag : No
Command line compressor : C:\Program Files\Exact Audio Copy\FLAC\FLAC.EXE
Additional command line options : -6 -V -T "ARTIST=%a" -T "TITLE=%t" -T "ALBUM=%g" -T "DATE=%y" -T "TRACKNUMBER=%n" -T "GENRE=%m" -T "COMMENT=%e" %s -o %d
TOC of the extracted CD
Track | Start | Length | Start sector | End sector
---------------------------------------------------------
1 | 0:00.00 | 7:06.03 | 0 | 31952
2 | 7:06.03 | 7:24.38 | 31953 | 65290
3 | 14:30.41 | 5:40.67 | 65291 | 90857
4 | 20:11.33 | 7:02.01 | 90858 | 122508
5 | 27:13.34 | 4:10.73 | 122509 | 141331
6 | 31:24.32 | 4:23.27 | 141332 | 161083
7 | 35:47.59 | 4:10.69 | 161084 | 179902
8 | 39:58.53 | 9:31.34 | 179903 | 222761
Track 1
Filename C:\Documents and Settings\S\Мои документы\Torrent раздача\01.Francesco Cusa Skrunch electric,vocal-Lacan Boys.wav
Pre-gap length 0:00:02.00
Peak level 99.9 %
Track quality 99.9 %
Test CRC 4B8DC193
Copy CRC 4B8DC193
Track not present in AccurateRip database
Copy OK
Track 2
Filename C:\Documents and Settings\S\Мои документы\Torrent раздача\02.Francesco Cusa Skrunch electric,vocal-Lacan on the Bitch.wav
Pre-gap length 0:00:02.00
Peak level 99.9 %
Track quality 100.0 %
Test CRC CF48DD87
Copy CRC CF48DD87
Track not present in AccurateRip database
Copy OK
Track 3
Filename C:\Documents and Settings\S\Мои документы\Torrent раздача\03.Francesco Cusa Skrunch electric,vocal-Le can can de Lacan.wav
Pre-gap length 0:00:02.00
Peak level 99.9 %
Track quality 100.0 %
Test CRC 35BF9B30
Copy CRC 35BF9B30
Track not present in AccurateRip database
Copy OK
Track 4
Filename C:\Documents and Settings\S\Мои документы\Torrent раздача\04.Francesco Cusa Skrunch electric,vocal-Le Lancome de Lacan.wav
Pre-gap length 0:00:02.00
Peak level 99.9 %
Track quality 100.0 %
Test CRC 97D4B8BF
Copy CRC 97D4B8BF
Track not present in AccurateRip database
Copy OK
Track 5
Filename C:\Documents and Settings\S\Мои документы\Torrent раздача\05.Francesco Cusa Skrunch electric,vocal-Lacan boys.wav
Pre-gap length 0:00:02.00
Peak level 99.9 %
Track quality 100.0 %
Test CRC ED199498
Copy CRC ED199498
Track not present in AccurateRip database
Copy OK
Track 6
Filename C:\Documents and Settings\S\Мои документы\Torrent раздача\06.Francesco Cusa Skrunch electric,vocal-Lacan on the Bitch.wav
Pre-gap length 0:00:02.00
Peak level 99.9 %
Track quality 100.0 %
Test CRC 3C5734B4
Copy CRC 3C5734B4
Track not present in AccurateRip database
Copy OK
Track 7
Filename C:\Documents and Settings\S\Мои документы\Torrent раздача\07.Francesco Cusa Skrunch electric,vocal-Le can can de Lacan.wav
Pre-gap length 0:00:02.00
Peak level 99.9 %
Track quality 100.0 %
Test CRC D669276D
Copy CRC D669276D
Track not present in AccurateRip database
Copy OK
Track 8
Filename C:\Documents and Settings\S\Мои документы\Torrent раздача\08.Francesco Cusa Skrunch electric,vocal-Le Lancome de Lacan.wav
Pre-gap length 0:00:02.00
Peak level 100.0 %
Track quality 100.0 %
Test CRC 5EBE77ED
Copy CRC 5EBE77ED
Track not present in AccurateRip database
Copy OK
None of the tracks are present in the AccurateRip database
No errors occurred
End of status report
 
Содержание индексной карты (.CUE)
REM GENRE Jazz
REM DATE 2009
REM DISCID 640B9A08
REM COMMENT "ExactAudioCopy v0.99pb5"
PERFORMER "Francesco Cusa 'Skrunch'"
TITLE "Jacques Lacan, A True Musical Story"
FILE "01 - Lacan Boys.wav" WAVE
TRACK 01 AUDIO
TITLE "Lacan Boys"
PERFORMER "Francesco Cusa 'Skrunch'"
INDEX 01 00:00:00
TRACK 02 AUDIO
TITLE "Lacan on the Bitch"
PERFORMER "Francesco Cusa 'Skrunch'"
INDEX 00 07:04:03
FILE "02 - Lacan on the Bitch.wav" WAVE
INDEX 01 00:00:00
TRACK 03 AUDIO
TITLE "Le can can de Lacan"
PERFORMER "Francesco Cusa 'Skrunch'"
INDEX 00 07:22:38
FILE "03 - Le can can de Lacan.wav" WAVE
INDEX 01 00:00:00
TRACK 04 AUDIO
TITLE "Le Lancome de Lacan"
PERFORMER "Francesco Cusa 'Skrunch'"
INDEX 00 05:38:67
FILE "04 - Le Lancome de Lacan.wav" WAVE
INDEX 01 00:00:00
TRACK 05 AUDIO
TITLE "Lacan Boys"
PERFORMER "Francesco Cusa 'Skrunch'"
INDEX 00 07:00:01
FILE "05 - Lacan Boys.wav" WAVE
INDEX 01 00:00:00
TRACK 06 AUDIO
TITLE "Lacan on the Bitch"
PERFORMER "Francesco Cusa 'Skrunch'"
INDEX 00 04:08:73
FILE "06 - Lacan on the Bitch.wav" WAVE
INDEX 01 00:00:00
TRACK 07 AUDIO
TITLE "Le can can de Lacan"
PERFORMER "Francesco Cusa 'Skrunch'"
INDEX 00 04:21:27
FILE "07 - Le can can de Lacan.wav" WAVE
INDEX 01 00:00:00
TRACK 08 AUDIO
TITLE "Le Lancome de Lacan"
PERFORMER "Francesco Cusa 'Skrunch'"
INDEX 00 04:08:69
FILE "08 - Le Lancome de Lacan.wav" WAVE
INDEX 01 00:00:00
 
Отчет CUETools
[CUETools log; Date: 12.12.2013 23:38:46; Version: 2.1.4]
[CTDB TOCID: QA3huJQ89nQH88FQ3TIGyEOUHbs-] disk not present in database.
[AccurateRip ID: 000f7f8c-00658dbb-640b9a08] disk not present in database.
Track Peak [ CRC32 ] [W/O NULL] [ LOG ]
-- 100,0 [0EF601B1] [81BB606C]
01 99,9 [4B8DC193] [B4FDBC46] CRC32
02 99,9 [CF48DD87] [F06F4C31] CRC32
03 99,9 [35BF9B30] [D2E774D3] CRC32
04 99,9 [97D4B8BF] [E1719799] CRC32
05 99,9 [ED199498] [A417D13E] CRC32
06 99,9 [3C5734B4] [01768168] CRC32
07 99,9 [D669276D] [1DE21D51] CRC32
08 100,0 [5EBE77ED] [527D50D2] CRC32
 
Об альбоме (сборнике)
Skrunch
"An energetic mix consumed with Sicilian sun, such a lot of mafia, oranges, green lemons rubbed on knees of callow young impudent girls. Butterflys hunting can be a problem exactly as razor on pimpels. Isn't it? For strong palates". The project arise at the end of millenium from F. Cusa who, after years, at last find the two "missing elements" to realize a well developed musical idea. These are compositions that needed a long period of work to be entirely live performed and recorded in studio. "The search of amazing atmosphere, understood as pre-text and therefore false frame and illusory weft, would seem to be the prechosen channel for becoming a vehicle of the musical "contents" of this "Psicopatologia of the Serial Killer". However, a similar affirmation, also with use of the conditional (mood), would give cause for unexpected reflection already to second hearing. The user could in fact be picked from Hamletic doubts about approximately the real intention of Ours of permitting “affabulatio” subordinately regarding musics, because sometimes the roof gutter is replaced by organic remains and viceversa, in a perverse yoke, as perverse is a game for Playstation. The prolapse of hardware and software culminating in the black hole of the communicative "gap", seems to submit to the Playstation like to this cd, in a continuous exchange whose “leitmotif is”: "the communication is the messagge", as obsessively the great puppet showman of this "Grand Guignol" seems impress it on our minds. To this plan gave assens, beyond to more than valid nucleus of the component musicians Skrunch, illustrious names of the prosa too. They have gladly lend their voice to the amazing fresco like a psyco-thriller musical, and among these voices how not notice the extraordinary interpretation of the mythical German Frau Rinciska, or the histrionics of the great voice of the Japanese Saku Ran, coming from the great tradition of the Nu theatre, turned to symbolize the hallucinated deliriums of the psychotic. Last but not least are to be showed the transient "apparitions" of the English Nat All and the American Gay Goldsaint. A very enjoyable product to align to the section "Avant/Jazz-Disconcerting/Grotesque" in your well supplied discotheque. Advised to the lovers of the “musical voyeurism”.
Lacan Girls
"The music of Skrunch has in this case a different approach. Two voices are opposed as a counterpoint to the schizoid interceding of the Big Other, performed by Giacomo Ancillotto, who is guitarrist and sound maestro. Gaia Mattiuzzi as a mermaid enchants the imprudent listner through the "Melodia della Lamella". Whereas Marta Raviglia and her persuasive voice drives towards traps and plotting conceived by a perverted mind. The drums represents the "petit object", as something that can penetrate an unfathomable object. Therefore you can immagine Marlene Dietrich performing the can can dance".
Any questions -> support@pro-jazz.com. По всем вопросам пишите -> support@pro-jazz.com
21:25
184
Нет комментариев. Ваш будет первым!