Вы используете незарегистрированную версию компонента "Вкладки"!

Поиск

(Avant-Garde / Structured Improvisation / Modern Creative / New World) Denman Maroney - Fluxations - 2003, FLAC (image+.cue), lossless

Треклист:
Denman Maroney - Fluxations

Жанр: Avant-Garde / Structured Improvisation / Modern Creative / New World
Год выпуска диска: 2003
Производитель диска: USA (New World Records 80607)
Аудио кодек: FLAC
Тип рипа: image+.cue
Битрейт аудио: lossless
Продолжительность: 47:21
Источник: Собственный рип с оригинального диска
Ned Rothenberg: bass clarinet, alto saxophone
Dave Ballou: trumpet
Denman Maroney: hyperpiano
Mark Dresser: contrabass
Kevin Norton: drums, vibraphone
1. Part 1
2. Part 2
3. Part 3
4. Part 4
5. Part 5
6. Part 6

 
EAC Report
Exact Audio Copy V0.99 prebeta 5 from 4. May 2009
EAC extraction logfile from 29. November 2009, 0:03
Denman Maroney / Fluxations
Used drive : TSSTcorpCD/DVDW SH-S182M Adapter: 2 ID: 0
Read mode : Secure
Utilize accurate stream : Yes
Defeat audio cache : Yes
Make use of C2 pointers : No
Read offset correction : 6
Overread into Lead-In and Lead-Out : No
Fill up missing offset samples with silence : Yes
Delete leading and trailing silent blocks : No
Null samples used in CRC calculations : Yes
Used interface : Installed external ASPI interface
Used output format : User Defined Encoder
Selected bitrate : 1024 kBit/s
Quality : High
Add ID3 tag : No
Command line compressor : C:\Program Files\FLAC\flac.exe
Additional command line options : -6 -V -T "ARTIST=%a" -T "TITLE=%t" -T "ALBUM=%g" -T "DATE=%y" -T "TRACKNUMBER=%n" -T "GENRE=%m" -T "COMMENT=EAC FLAC -6" %s
TOC of the extracted CD
Track | Start | Length | Start sector | End sector
---------------------------------------------------------
1 | 0:00.00 | 1:25.56 | 0 | 6430
2 | 1:25.56 | 11:14.61 | 6431 | 57041
3 | 12:40.42 | 12:37.61 | 57042 | 113877
4 | 25:18.28 | 11:33.01 | 113878 | 165853
5 | 36:51.29 | 8:28.63 | 165854 | 204016
6 | 45:20.17 | 2:00.55 | 204017 | 213071
Range status and errors
Selected range
Filename C:\Denman Maroney - Fluxations.wav
Peak level 96.8 %
Range quality 100.0 %
Test CRC 6148B811
Copy CRC 6148B811
Copy OK
No errors occurred
AccurateRip summary
Track 1 not present in database
Track 2 not present in database
Track 3 not present in database
Track 4 not present in database
Track 5 not present in database
Track 6 not present in database
None of the tracks are present in the AccurateRip database
End of status report
По всем вопросам пишите личное сообщение пользователю M0p94ok.
20:40
151
Нет комментариев. Ваш будет первым!