Вы используете незарегистрированную версию компонента "Вкладки"!

Поиск

(Avant Garde , Dodecaphonic) Bruce Arnold & Olivier Ker Ourio - Duets - 2004, FLAC (image+.cue), lossless

(Avant Garde , Dodecaphonic) Bruce Arnold & Olivier Ker Ourio - Duets - 2004, FLAC (image+.cue), lossless
Треклист:
Bruce Arnold & Olivier Ker Ourio - Duets
Жанр: Avant Garde , Dodecaphonic
Год выпуска диска: 2004
Производитель диска: USA (Muse-Eek)
Аудио кодек: FLAC
Тип рипа: image+.cue
Битрейт аудио: lossless
Продолжительность: 40.45
Трэклист:
1. Spurge
2. Blue Lotus
3. Reflection
4. Consistancy
5. Repetitive Behavior
6. A Day in the Badlands
7. Spurge Jam
8. Release
9. Blues for Arnie
10. Endless Reflection
11. A Cry
Доп. информация: Bruce Arnold - guitar (Labella strings)
Olivier Ker Ourio - Hohner Cromatic Harmonica
собственный рип с оригинального диска
 
eac log
Exact Audio Copy V0.99 prebeta 5 from 4. May 2009
EAC extraction logfile from 5. April 2010, 0:36
Bruce Arnold & Oliver Ker Ourio / Duets
Used drive : TSSTcorpCDDVDW TS-L633C Adapter: 0 ID: 1
Read mode : Secure
Utilize accurate stream : Yes
Defeat audio cache : Yes
Make use of C2 pointers : No
Read offset correction : 6
Overread into Lead-In and Lead-Out : No
Fill up missing offset samples with silence : Yes
Delete leading and trailing silent blocks : No
Null samples used in CRC calculations : Yes
Used interface : Native Win32 interface for Win NT & 2000
Used output format : User Defined Encoder
Selected bitrate : 768 kBit/s
Quality : High
Add ID3 tag : No
Command line compressor : C:\Program Files (x86)\Exact Audio Copy\Flac\flac.exe
Additional command line options : -8 -V %s
TOC of the extracted CD
Track | Start | Length | Start sector | End sector
---------------------------------------------------------
1 | 0:00.00 | 4:32.44 | 0 | 20443
2 | 4:32.44 | 5:19.10 | 20444 | 44378
3 | 9:51.54 | 3:50.15 | 44379 | 61643
4 | 13:41.69 | 2:33.08 | 61644 | 73126
5 | 16:15.02 | 4:24.07 | 73127 | 92933
6 | 20:39.09 | 2:58.09 | 92934 | 106292
7 | 23:37.18 | 1:55.29 | 106293 | 114946
8 | 25:32.47 | 5:20.14 | 114947 | 138960
9 | 30:52.61 | 3:56.71 | 138961 | 156731
10 | 34:49.57 | 2:20.40 | 156732 | 167271
11 | 37:10.22 | 3:35.30 | 167272 | 183426
Range status and errors
Selected range
Filename C:\CDs\Bruce Arnold & Oliver Ker Ourio\Bruce Arnold & Oliver Ker Ourio - Duets.wav
Peak level 88.6 %
Range quality 100.0 %
Copy CRC 5D67E428
Copy OK
No errors occurred
AccurateRip summary
Track 1 accurately ripped (confidence 1) [4DFF1E4A]
Track 2 accurately ripped (confidence 1) [636C1A1C]
Track 3 accurately ripped (confidence 1) [63D7B0C2]
Track 4 accurately ripped (confidence 1) [0B92E20C]
Track 5 accurately ripped (confidence 1) [0F388214]
Track 6 accurately ripped (confidence 1) [D54592B7]
Track 7 accurately ripped (confidence 1) [8A935E71]
Track 8 accurately ripped (confidence 1) [DB7F6E26]
Track 9 accurately ripped (confidence 1) [0C9ACA4E]
Track 10 accurately ripped (confidence 1) [643E365D]
Track 11 accurately ripped (confidence 1) [37BFA523]
All tracks accurately ripped
End of status report
По всем вопросам пишите личное сообщение пользователю M0p94ok.
20:41
153
Нет комментариев. Ваш будет первым!