Вы используете незарегистрированную версию компонента "Вкладки"!

Поиск

(Avant-Garde, Punk, Rock, Klezmer, Gypsy, Electronic, Folk, World, Fusion ) Koby Israelite - King Papaya - 2009, FLAC (tracks+.cue), lossless

(Avant-Garde, Punk, Rock, Klezmer, Gypsy, Electronic, Folk, World, Fusion ) Koby Israelite - King Papaya - 2009, FLAC (tracks+.cue), lossless
Треклист:
Koby Israelite / King Papaya
Жанр: Avant-Garde, Punk, Rock, Klezmer, Gypsy
Страна-производитель диска: UK
Год издания: 2009
Издатель (лейбл): Circus Mayhem Records
Номер по каталогу: CM1001
Аудиокодек: FLAC (*.flac)
Тип рипа: tracks+.cue
Битрейт аудио: lossless
Продолжительность: 51:20
Источник (релизер): Aeacos
Наличие сканов в содержимом раздачи: да
Треклист:
01 Overture
02 The King's Laughter
03 Peardition Girls
04 Word Travels Fast
05 The Moroser
06 Still Laughing
07 Circus Mayhem
08 Bald Patch
09 A Band of Gypsies
10 Hell's Kitchen
11 Arrival of the Telepather
12 Into the Subconscious
13 Meeting an Angel
14 Jacky Jones
15 Last Laugh
16 Molly's Sacrifice
17 The Saddest Joke Ever
 
Лог создания рипа
Exact Audio Copy V1.0 beta 3 from 29. August 2011
EAC extraction logfile from 15. December 2011, 20:32
Koby Israelite / King Papaya
Used drive : PBDS DVD+-RW DS-8W1P Adapter: 0 ID: 0
Read mode : Secure
Utilize accurate stream : Yes
Defeat audio cache : Yes
Make use of C2 pointers : No
Read offset correction : 594
Overread into Lead-In and Lead-Out : No
Fill up missing offset samples with silence : Yes
Delete leading and trailing silent blocks : No
Null samples used in CRC calculations : Yes
Used interface : Native Win32 interface for Win NT & 2000
Gap handling : Appended to previous track
Used output format : Internal WAV Routines
Sample format : 44.100 Hz; 16 Bit; Stereo
TOC of the extracted CD
Track | Start | Length | Start sector | End sector
---------------------------------------------------------
1 | 0:00.00 | 2:42.68 | 0 | 12217
2 | 2:42.68 | 4:37.31 | 12218 | 33023
3 | 7:20.24 | 4:22.45 | 33024 | 52718
4 | 11:42.69 | 2:26.28 | 52719 | 63696
5 | 14:09.22 | 4:07.60 | 63697 | 82281
6 | 18:17.07 | 0:27.17 | 82282 | 84323
7 | 18:44.24 | 4:27.56 | 84324 | 104404
8 | 23:12.05 | 2:41.44 | 104405 | 116523
9 | 25:53.49 | 4:16.36 | 116524 | 135759
10 | 30:10.10 | 1:26.17 | 135760 | 142226
11 | 31:36.27 | 2:15.29 | 142227 | 152380
12 | 33:51.56 | 1:42.71 | 152381 | 160101
13 | 35:34.52 | 3:57.67 | 160102 | 177943
14 | 39:32.44 | 1:24.09 | 177944 | 184252
15 | 40:56.53 | 0:52.58 | 184253 | 188210
16 | 41:49.36 | 4:06.68 | 188211 | 206728
17 | 45:56.29 | 5:23.45 | 206729 | 230998
Track 1
Filename F:\Upload\Koby Israelite - King Papaya (2009) Lossless\01 Overture.wav
Pre-gap length 0:00:02.00
Peak level 98.8 %
Extraction speed 2.4 X
Track quality 100.0 %
Test CRC 7CC8E88A
Copy CRC 7CC8E88A
Copy OK
Track 2
Filename F:\Upload\Koby Israelite - King Papaya (2009) Lossless\02 The King's Laughter.wav
Peak level 98.8 %
Extraction speed 2.7 X
Track quality 100.0 %
Test CRC 317927D3
Copy CRC 317927D3
Copy OK
Track 3
Filename F:\Upload\Koby Israelite - King Papaya (2009) Lossless\03 Peardition Girls.wav
Peak level 98.8 %
Extraction speed 2.8 X
Track quality 99.9 %
Test CRC AE029C66
Copy CRC AE029C66
Copy OK
Track 4
Filename F:\Upload\Koby Israelite - King Papaya (2009) Lossless\04 Word Travels Fast.wav
Peak level 98.8 %
Extraction speed 3.1 X
Track quality 100.0 %
Test CRC 2AC6BA50
Copy CRC 2AC6BA50
Copy OK
Track 5
Filename F:\Upload\Koby Israelite - King Papaya (2009) Lossless\05 The Moroser.wav
Peak level 98.8 %
Extraction speed 2.8 X
Track quality 100.0 %
Test CRC E74282C0
Copy CRC E74282C0
Copy OK
Track 6
Filename F:\Upload\Koby Israelite - King Papaya (2009) Lossless\06 Still Laughing.wav
Peak level 98.8 %
Extraction speed 0.4 X
Track quality 99.6 %
Test CRC B9DE2A28
Copy CRC B9DE2A28
Copy OK
Track 7
Filename F:\Upload\Koby Israelite - King Papaya (2009) Lossless\07 Circus Mayhem.wav
Peak level 98.8 %
Extraction speed 1.4 X
Track quality 100.0 %
Test CRC 601CE8C3
Copy CRC 601CE8C3
Copy OK
Track 8
Filename F:\Upload\Koby Israelite - King Papaya (2009) Lossless\08 Bald Patch.wav
Peak level 98.8 %
Extraction speed 1.4 X
Track quality 100.0 %
Test CRC A3E592FB
Copy CRC A3E592FB
Copy OK
Track 9
Filename F:\Upload\Koby Israelite - King Papaya (2009) Lossless\09 A Band of Gypsies.wav
Peak level 98.8 %
Extraction speed 1.6 X
Track quality 100.0 %
Test CRC E3D34338
Copy CRC E3D34338
Copy OK
Track 10
Filename F:\Upload\Koby Israelite - King Papaya (2009) Lossless\10 Hell's Kitchen.wav
Peak level 98.8 %
Extraction speed 1.3 X
Track quality 100.0 %
Test CRC 3059BE29
Copy CRC 3059BE29
Copy OK
Track 11
Filename F:\Upload\Koby Israelite - King Papaya (2009) Lossless\11 Arrival of the Telepather.wav
Peak level 98.8 %
Extraction speed 1.5 X
Track quality 100.0 %
Test CRC C0863D9D
Copy CRC C0863D9D
Copy OK
Track 12
Filename F:\Upload\Koby Israelite - King Papaya (2009) Lossless\12 Into the Subconscious.wav
Peak level 98.8 %
Extraction speed 1.4 X
Track quality 100.0 %
Test CRC FBF8363D
Copy CRC FBF8363D
Copy OK
Track 13
Filename F:\Upload\Koby Israelite - King Papaya (2009) Lossless\13 Meeting an Angel.wav
Peak level 98.8 %
Extraction speed 1.7 X
Track quality 100.0 %
Test CRC 95A6FBD7
Copy CRC 95A6FBD7
Copy OK
Track 14
Filename F:\Upload\Koby Israelite - King Papaya (2009) Lossless\14 Jacky Jones.wav
Peak level 98.8 %
Extraction speed 1.3 X
Track quality 100.0 %
Test CRC 8DB7892F
Copy CRC 8DB7892F
Copy OK
Track 15
Filename F:\Upload\Koby Israelite - King Papaya (2009) Lossless\15 Last Laugh.wav
Peak level 98.8 %
Extraction speed 0.9 X
Track quality 99.7 %
Test CRC F8C59D85
Copy CRC F8C59D85
Copy OK
Track 16
Filename F:\Upload\Koby Israelite - King Papaya (2009) Lossless\16 Molly's Sacrifice.wav
Peak level 98.8 %
Extraction speed 1.8 X
Track quality 100.0 %
Test CRC E8CEB5B7
Copy CRC E8CEB5B7
Copy OK
Track 17
Filename F:\Upload\Koby Israelite - King Papaya (2009) Lossless\17 The Saddest Joke Ever.wav
Peak level 98.8 %
Extraction speed 2.0 X
Track quality 100.0 %
Test CRC 3FF2B750
Copy CRC 3FF2B750
Copy OK
No errors occurred
End of status report
==== Log checksum A9DBCED056C57855B05D05C2A27BC478888CB60981DF032E789C6B23A6A0B8C1 ====
 
Содержание индексной карты (.CUE)
REM GENRE Jazz
REM DATE 2009
REM DISCID EA0C0711
REM COMMENT "ExactAudioCopy v1.0b3"
PERFORMER "Koby Israelite"
TITLE "King Papaya"
FILE "01 Overture.flac" WAVE
TRACK 01 AUDIO
TITLE "Overture"
PERFORMER "Koby Israelite"
INDEX 01 00:00:00
FILE "02 The King's Laughter.flac" WAVE
TRACK 02 AUDIO
TITLE "The King's Laughter"
PERFORMER "Koby Israelite"
INDEX 01 00:00:00
FILE "03 Peardition Girls.flac" WAVE
TRACK 03 AUDIO
TITLE "Peardition Girls"
PERFORMER "Koby Israelite"
INDEX 01 00:00:00
FILE "04 Word Travels Fast.flac" WAVE
TRACK 04 AUDIO
TITLE "Word Travels Fast"
PERFORMER "Koby Israelite"
INDEX 01 00:00:00
FILE "05 The Moroser.flac" WAVE
TRACK 05 AUDIO
TITLE "The Moroser"
PERFORMER "Koby Israelite"
INDEX 01 00:00:00
FILE "06 Still Laughing.flac" WAVE
TRACK 06 AUDIO
TITLE "Still Laughing"
PERFORMER "Koby Israelite"
INDEX 01 00:00:00
FILE "07 Circus Mayhem.flac" WAVE
TRACK 07 AUDIO
TITLE "Circus Mayhem"
PERFORMER "Koby Israelite"
INDEX 01 00:00:00
FILE "08 Bald Patch.flac" WAVE
TRACK 08 AUDIO
TITLE "Bald Patch"
PERFORMER "Koby Israelite"
INDEX 01 00:00:00
FILE "09 A Band of Gypsies.flac" WAVE
TRACK 09 AUDIO
TITLE "A Band of Gypsies"
PERFORMER "Koby Israelite"
INDEX 01 00:00:00
FILE "10 Hell's Kitchen.flac" WAVE
TRACK 10 AUDIO
TITLE "Hell's Kitchen"
PERFORMER "Koby Israelite"
INDEX 01 00:00:00
FILE "11 Arrival of the Telepather.flac" WAVE
TRACK 11 AUDIO
TITLE "Arrival of the Telepather"
PERFORMER "Koby Israelite"
INDEX 01 00:00:00
FILE "12 Into the Subconscious.flac" WAVE
TRACK 12 AUDIO
TITLE "Into the Subconscious"
PERFORMER "Koby Israelite"
INDEX 01 00:00:00
FILE "13 Meeting an Angel.flac" WAVE
TRACK 13 AUDIO
TITLE "Meeting an Angel"
PERFORMER "Koby Israelite"
INDEX 01 00:00:00
FILE "14 Jacky Jones.flac" WAVE
TRACK 14 AUDIO
TITLE "Jacky Jones"
PERFORMER "Koby Israelite"
INDEX 01 00:00:00
FILE "15 Last Laugh.flac" WAVE
TRACK 15 AUDIO
TITLE "Last Laugh"
PERFORMER "Koby Israelite"
INDEX 01 00:00:00
FILE "16 Molly's Sacrifice.flac" WAVE
TRACK 16 AUDIO
TITLE "Molly's Sacrifice"
PERFORMER "Koby Israelite"
INDEX 01 00:00:00
FILE "17 The Saddest Joke Ever.flac" WAVE
TRACK 17 AUDIO
TITLE "The Saddest Joke Ever"
PERFORMER "Koby Israelite"
INDEX 01 00:00:00
 
Состав
Accordion, Drums, Piano, Keyboards, Guitar, Bouzouki, Clarinet, Duduk, Banjo [Indian], Vocals – Koby Israelite
Bass – Yaron Stavi
Any questions -> support@pro-jazz.com. По всем вопросам пишите -> support@pro-jazz.com
03:48
159
Нет комментариев. Ваш будет первым!