Вы используете незарегистрированную версию компонента "Вкладки"!

Поиск

(Avant-Garde / Post-Bop / Delmark) Josh Berman - Old Idea - 2009, FLAC (image+.cue), lossless

(Avant-Garde / Post-Bop / Delmark) Josh Berman - Old Idea - 2009, FLAC (image+.cue), lossless
Треклист:
Josh Berman - Old Idea
Жанр: Avant-Garde / Post-Bop / Delmark
Год выпуска диска: 2009
Производитель диска: USA (Delmark DE 588)
Аудио кодек: FLAC
Тип рипа: image+.cue
Битрейт аудио: lossless
Продолжительность: 50:54
Josh Berman cornet
Keefe Jackson tenor saxophone
Jason Adasiewicz vibraphone
Anton Hatwich bass
Nori Tanaka drums
1. On Account of a Hat
2. Next Year A
3. Let's Pretend
4. Nori
5. Next Year B
6. Almost Late
7. What Can?
8. Db
9. Next Year C
 
Release notes
For a decade jazz cornetist Josh Berman has been a mainstay of the post-Vandermark generation of Chicago improvisers, a wide circle of ambitious musos who meet up in varied ad hoc or fixed settings: a circle including all the players in Josh's group Old Idea. He's already recorded some--as, say, part of a quartet on Chicago-Luzern Exchange alongside tenor saxophonist Keefe Jackson, with Jackson's big and small bands Project Project and Fast Citizens, with Jason Adasiewicz's quintet Rolldown and Rob Mazurek's Exploding Star Orchestra.
 
EAC Report
Exact Audio Copy V0.99 prebeta 5 from 4. May 2009
EAC extraction logfile from 12. September 2009, 10:38
Josh Berman / Old Idea
Used drive : TSSTcorpCD/DVDW SH-S182M Adapter: 2 ID: 0
Read mode : Secure
Utilize accurate stream : Yes
Defeat audio cache : Yes
Make use of C2 pointers : No
Read offset correction : 6
Overread into Lead-In and Lead-Out : No
Fill up missing offset samples with silence : Yes
Delete leading and trailing silent blocks : No
Null samples used in CRC calculations : Yes
Used interface : Installed external ASPI interface
Used output format : User Defined Encoder
Selected bitrate : 1024 kBit/s
Quality : High
Add ID3 tag : No
Command line compressor : C:\Program Files\FLAC\flac.exe
Additional command line options : -6 -V -T "ARTIST=%a" -T "TITLE=%t" -T "ALBUM=%g" -T "DATE=%y" -T "TRACKNUMBER=%n" -T "GENRE=%m" -T "COMMENT=EAC FLAC -6" %s
TOC of the extracted CD
Track | Start | Length | Start sector | End sector
---------------------------------------------------------
1 | 0:00.00 | 7:58.20 | 0 | 35869
2 | 7:58.20 | 2:24.12 | 35870 | 46681
3 | 10:22.32 | 7:49.18 | 46682 | 81874
4 | 18:11.50 | 7:05.30 | 81875 | 113779
5 | 25:17.05 | 2:32.24 | 113780 | 125203
6 | 27:49.29 | 6:25.07 | 125204 | 154085
7 | 34:14.36 | 7:14.07 | 154086 | 186642
8 | 41:28.43 | 5:08.04 | 186643 | 209746
9 | 46:36.47 | 4:17.50 | 209747 | 229071
Range status and errors
Selected range
Filename C:\Documents and Settings\Igor\My Documents\My Music\eac\Josh Berman - Old Idea.wav
Peak level 100.0 %
Range quality 100.0 %
Test CRC 2001C23A
Copy CRC 2001C23A
Copy OK
No errors occurred
AccurateRip summary
Track 1 not present in database
Track 2 not present in database
Track 3 not present in database
Track 4 not present in database
Track 5 not present in database
Track 6 not present in database
Track 7 not present in database
Track 8 not present in database
Track 9 not present in database
None of the tracks are present in the AccurateRip database
End of status report

Настоятельные рекомендации - это очень сильно.
По всем вопросам пишите личное сообщение пользователю M0p94ok.
14:56
158
Нет комментариев. Ваш будет первым!