Вы используете незарегистрированную версию компонента "Вкладки"!

Поиск

(Avant-Garde, Post-Bop, ACT Music) Christof Lauer, Jens Thomas - Shadows in the Rain (The Sting Project) - 2001, FLAC (tracks+.cue), lossless

(Avant-Garde, Post-Bop, ACT Music) Christof Lauer, Jens Thomas - Shadows in the Rain (The Sting Project) - 2001, FLAC (tracks+.cue), lossless
Издатель (лейбл):
Треклист:
Christof Lauer, Jens Thomas / Shadows in the Rain (The Sting Project)
Жанр: Avant-Garde, Post-Bop, ACT Music
Страна-производитель диска: Germany
Год издания: 2001
Издатель (лейбл): ACT Music
Номер по каталогу: ACT 9297-2
Аудиокодек: FLAC (*.flac)
Тип рипа: tracks+.cue
Битрейт аудио: lossless
Продолжительность: 1:02:51
Источник (релизер): Max Monteiro
Наличие сканов в содержимом раздачи: нет
Треклист:
01. Roxanne 2:58
02. So Lonely** 6:52
03. Shadows in the Rain* 3:57
04. Ecilop 3:22
05. Russians** 5:14
06. Ballad for Sting 3:08
07. Syncronicity I 5:19
08. Tea in the Sahara** 3:25
09. Moon over Bourbon Street 2:16
10. No Matter What They Say 4:50
11. Every Breath You Take 4:32
12. Every Little Thing** 3:43
13. Desert Rose 6:03
14. Syncronicity II 5:41
15. Roxanne (reprise) 1:32
All songs written by Sting except #5 by Sting and Prokofieff, #4 & #6 by Christof Lauer and #10 by Jens Thomas.
Recorded at Rainbow Studio Oslo, June 14-17, 2001.
Christof Lauer – Tenor & Soprano Saxophone
Jens Thomas – Piano
Sidsel Endresen – Vocal*
Cikada String Quartet**:
Odd Hannisdal
Henrik Hannisdal
Emery Cardas
Marek Konstantynowicz
Colin Towns – arrangements**
 
Лог создания рипа
Exact Audio Copy V1.0 beta 3 from 29. August 2011
EAC extraction logfile from 8. September 2013, 11:14
Christof Lauer, Jens Thomas / Shadows in the Rain
Used drive : SlimtypeeNAU508 5 Adapter: 1 ID: 0
Read mode : Secure
Utilize accurate stream : Yes
Defeat audio cache : Yes
Make use of C2 pointers : No
Read offset correction : 6
Overread into Lead-In and Lead-Out : No
Fill up missing offset samples with silence : Yes
Delete leading and trailing silent blocks : No
Null samples used in CRC calculations : Yes
Used interface : Native Win32 interface for Win NT & 2000
Gap handling : Appended to previous track
Used output format : User Defined Encoder
Selected bitrate : 768 kBit/s
Quality : High
Add ID3 tag : No
Command line compressor : C:\Program Files (x86)\Exact Audio Copy\Flac\flac.exe
Additional command line options : -8 -V -T "ARTIST=%artist%" -T "TITLE=%title%" -T "ALBUM=%albumtitle%" -T "DATE=%year%" -T "TRACKNUMBER=%tracknr%" -T "GENRE=%genre%" -T "PERFORMER=%albuminterpret%" -T "COMPOSER=%composer%" %haslyrics%--tag-from-file=LYRICS="%lyricsfile%"%haslyrics% -T "ALBUMARTIST=%albumartist%" -T "DISCNUMBER=%cdnumber%" -T "TOTALDISCS=%totalcds%" -T "TOTALTRACKS=%numtracks%" -T "COMMENT=%comment%" %source% -o %dest%
TOC of the extracted CD
Track | Start | Length | Start sector | End sector
---------------------------------------------------------
1 | 0:00.00 | 2:58.30 | 0 | 13379
2 | 2:58.30 | 6:52.17 | 13380 | 44296
3 | 9:50.47 | 3:57.25 | 44297 | 62096
4 | 13:47.72 | 3:21.43 | 62097 | 77214
5 | 17:09.40 | 5:13.42 | 77215 | 100731
6 | 22:23.07 | 3:07.58 | 100732 | 114814
7 | 25:30.65 | 5:18.70 | 114815 | 138734
8 | 30:49.60 | 3:24.52 | 138735 | 154086
9 | 34:14.37 | 2:15.70 | 154087 | 164281
10 | 36:30.32 | 4:49.53 | 164282 | 186009
11 | 41:20.10 | 4:31.50 | 186010 | 206384
12 | 45:51.60 | 3:43.25 | 206385 | 223134
13 | 49:35.10 | 6:02.55 | 223135 | 250339
14 | 55:37.65 | 5:40.72 | 250340 | 275911
15 | 61:18.62 | 1:32.03 | 275912 | 282814
Track 1
Filename C:\EAC rips\01 - Roxanne.wav
Pre-gap length 0:00:02.00
Peak level 99.0 %
Extraction speed 1.8 X
Track quality 100.0 %
Test CRC B2765870
Copy CRC B2765870
Accurately ripped (confidence 7) [B1ADFE91] (AR v2)
Copy OK
Track 2
Filename C:\EAC rips\02 - So Lonely.wav
Pre-gap length 0:00:03.50
Peak level 98.9 %
Extraction speed 2.5 X
Track quality 100.0 %
Test CRC 1CE6DDFA
Copy CRC 1CE6DDFA
Accurately ripped (confidence 7) [A2219CFF] (AR v2)
Copy OK
Track 3
Filename C:\EAC rips\03 - Shadows in the Rain.wav
Pre-gap length 0:00:02.27
Peak level 98.8 %
Extraction speed 2.6 X
Track quality 100.0 %
Test CRC 20AD546D
Copy CRC 20AD546D
Accurately ripped (confidence 7) [8A81E225] (AR v2)
Copy OK
Track 4
Filename C:\EAC rips\04 - Ecilop.wav
Pre-gap length 0:00:02.20
Peak level 99.6 %
Extraction speed 2.7 X
Track quality 100.0 %
Test CRC 47FCDA38
Copy CRC 47FCDA38
Accurately ripped (confidence 7) [9FA012DA] (AR v2)
Copy OK
Track 5
Filename C:\EAC rips\05 - Russians.wav
Pre-gap length 0:00:02.68
Peak level 98.8 %
Extraction speed 3.1 X
Track quality 100.0 %
Test CRC 80F74815
Copy CRC 80F74815
Accurately ripped (confidence 7) [9A1CD164] (AR v2)
Copy OK
Track 6
Filename C:\EAC rips\06 - Ballad for Sting.wav
Pre-gap length 0:00:02.42
Peak level 99.1 %
Extraction speed 3.0 X
Track quality 100.0 %
Test CRC B229131C
Copy CRC B229131C
Accurately ripped (confidence 7) [A53EB451] (AR v2)
Copy OK
Track 7
Filename C:\EAC rips\07 - Syncronicity I.wav
Pre-gap length 0:00:02.15
Peak level 99.9 %
Extraction speed 3.4 X
Track quality 100.0 %
Test CRC 4F97E29F
Copy CRC 4F97E29F
Accurately ripped (confidence 7) [09B75595] (AR v2)
Copy OK
Track 8
Filename C:\EAC rips\08 - Tea in the Sahara.wav
Pre-gap length 0:00:02.28
Peak level 98.7 %
Extraction speed 3.3 X
Track quality 100.0 %
Test CRC DC58050D
Copy CRC DC58050D
Accurately ripped (confidence 7) [5838558B] (AR v2)
Copy OK
Track 9
Filename C:\EAC rips\09 - Moon Over Bourbon Street.wav
Pre-gap length 0:00:02.27
Peak level 98.8 %
Extraction speed 3.2 X
Track quality 100.0 %
Test CRC 0F9BDD30
Copy CRC 0F9BDD30
Accurately ripped (confidence 7) [9DF8ED4B] (AR v2)
Copy OK
Track 10
Filename C:\EAC rips\10 - No Matter What They Say.wav
Pre-gap length 0:00:02.02
Peak level 99.9 %
Extraction speed 3.8 X
Track quality 100.0 %
Test CRC 68A5A76F
Copy CRC 68A5A76F
Accurately ripped (confidence 7) [2CC5291B] (AR v2)
Copy OK
Track 11
Filename C:\EAC rips\11 - Every Breath You Take.wav
Pre-gap length 0:00:02.33
Peak level 100.0 %
Extraction speed 3.9 X
Track quality 100.0 %
Test CRC 51DE036C
Copy CRC 51DE036C
Accurately ripped (confidence 7) [47D62567] (AR v2)
Copy OK
Track 12
Filename C:\EAC rips\12 - Every Little Thing.wav
Pre-gap length 0:00:02.25
Peak level 98.8 %
Extraction speed 3.9 X
Track quality 100.0 %
Test CRC DB35C323
Copy CRC DB35C323
Accurately ripped (confidence 7) [7358F89A] (AR v2)
Copy OK
Track 13
Filename C:\EAC rips\13 - Desert Rose.wav
Pre-gap length 0:00:02.38
Peak level 100.0 %
Extraction speed 4.2 X
Track quality 100.0 %
Test CRC C7524330
Copy CRC C7524330
Accurately ripped (confidence 7) [52714A89] (AR v2)
Copy OK
Track 14
Filename C:\EAC rips\14 - Syncronicity II.wav
Pre-gap length 0:00:03.10
Peak level 98.8 %
Extraction speed 3.8 X
Track quality 99.9 %
Test CRC 12966966
Copy CRC 12966966
Accurately ripped (confidence 7) [419C94D2] (AR v2)
Copy OK
Track 15
Filename C:\EAC rips\15 - Roxanne (reprise).wav
Pre-gap length 0:00:02.65
Peak level 98.9 %
Extraction speed 3.6 X
Track quality 100.0 %
Test CRC 6DCF7CD2
Copy CRC 6DCF7CD2
Accurately ripped (confidence 7) [30E6D3FD] (AR v2)
Copy OK
All tracks accurately ripped
No errors occurred
End of status report
---- CUETools DB Plugin V2.1.4
[CTDB TOCID: 4iklIy.jiYS_xw3pzRSG_y1NqiY-] found
Submit result: La demande a été abandonnée : La demande a été annulée.
Track | CTDB Status
1 | (4/4) Accurately ripped
2 | (4/4) Accurately ripped
3 | (4/4) Accurately ripped
4 | (4/4) Accurately ripped
5 | (4/4) Accurately ripped
6 | (4/4) Accurately ripped
7 | (4/4) Accurately ripped
8 | (4/4) Accurately ripped
9 | (4/4) Accurately ripped
10 | (4/4) Accurately ripped
11 | (4/4) Accurately ripped
12 | (4/4) Accurately ripped
13 | (4/4) Accurately ripped
14 | (4/4) Accurately ripped
15 | (4/4) Accurately ripped
==== Log checksum 30FC3D5CD6BCA14217CCFBA1DE3DA2CF1DBD575ADE2EDD16D77E02329D0ECC29 ====
 
Содержание индексной карты (.CUE)
REM GENRE Jazz
REM DATE 2001
REM DISCID D20EBA0F
REM COMMENT "ExactAudioCopy v1.0b3"
PERFORMER "Christof Lauer, Jens Thomas"
TITLE "Shadows in the Rain"
FILE "01 - Roxanne.wav" WAVE
TRACK 01 AUDIO
TITLE "Roxanne"
PERFORMER "Christof Lauer, Jens Thomas"
ISRC DEA890130420
INDEX 01 00:00:00
TRACK 02 AUDIO
TITLE "So Lonely"
PERFORMER "Christof Lauer, Jens Thomas"
ISRC DEA890130421
INDEX 00 02:54:55
FILE "02 - So Lonely.wav" WAVE
INDEX 01 00:00:00
TRACK 03 AUDIO
TITLE "Shadows in the Rain"
PERFORMER "Christof Lauer, Jens Thomas"
ISRC DEA890130422
INDEX 00 06:49:65
FILE "03 - Shadows in the Rain.wav" WAVE
INDEX 01 00:00:00
TRACK 04 AUDIO
TITLE "Ecilop"
PERFORMER "Christof Lauer, Jens Thomas"
ISRC DEA890130423
INDEX 00 03:55:05
FILE "04 - Ecilop.wav" WAVE
INDEX 01 00:00:00
TRACK 05 AUDIO
TITLE "Russians"
PERFORMER "Christof Lauer, Jens Thomas"
ISRC DEA890130424
INDEX 00 03:18:50
FILE "05 - Russians.wav" WAVE
INDEX 01 00:00:00
TRACK 06 AUDIO
TITLE "Ballad for Sting"
PERFORMER "Christof Lauer, Jens Thomas"
ISRC DEA890130425
INDEX 00 05:11:00
FILE "06 - Ballad for Sting.wav" WAVE
INDEX 01 00:00:00
TRACK 07 AUDIO
TITLE "Syncronicity I"
PERFORMER "Christof Lauer, Jens Thomas"
ISRC DEA890130426
INDEX 00 03:05:43
FILE "07 - Syncronicity I.wav" WAVE
INDEX 01 00:00:00
TRACK 08 AUDIO
TITLE "Tea in the Sahara"
PERFORMER "Christof Lauer, Jens Thomas"
ISRC DEA890130427
INDEX 00 05:16:42
FILE "08 - Tea in the Sahara.wav" WAVE
INDEX 01 00:00:00
TRACK 09 AUDIO
TITLE "Moon Over Bourbon Street"
PERFORMER "Christof Lauer, Jens Thomas"
ISRC DEA890130428
INDEX 00 03:22:25
FILE "09 - Moon Over Bourbon Street.wav" WAVE
INDEX 01 00:00:00
TRACK 10 AUDIO
TITLE "No Matter What They Say"
PERFORMER "Christof Lauer, Jens Thomas"
ISRC DEA890130429
INDEX 00 02:13:68
FILE "10 - No Matter What They Say.wav" WAVE
INDEX 01 00:00:00
TRACK 11 AUDIO
TITLE "Every Breath You Take"
PERFORMER "Christof Lauer, Jens Thomas"
ISRC DEA890130430
INDEX 00 04:47:20
FILE "11 - Every Breath You Take.wav" WAVE
INDEX 01 00:00:00
TRACK 12 AUDIO
TITLE "Every Little Thing"
PERFORMER "Christof Lauer, Jens Thomas"
ISRC DEA890130431
INDEX 00 04:29:25
FILE "12 - Every Little Thing.wav" WAVE
INDEX 01 00:00:00
TRACK 13 AUDIO
TITLE "Desert Rose"
PERFORMER "Christof Lauer, Jens Thomas"
ISRC DEA890130432
INDEX 00 03:40:62
FILE "13 - Desert Rose.wav" WAVE
INDEX 01 00:00:00
TRACK 14 AUDIO
TITLE "Syncronicity II"
PERFORMER "Christof Lauer, Jens Thomas"
ISRC DEA890130433
INDEX 00 05:59:45
FILE "14 - Syncronicity II.wav" WAVE
INDEX 01 00:00:00
TRACK 15 AUDIO
TITLE "Roxanne (reprise)"
PERFORMER "Christof Lauer, Jens Thomas"
ISRC DEA890130434
INDEX 00 05:38:07
FILE "15 - Roxanne (reprise).wav" WAVE
INDEX 01 00:00:00
Any questions -> support@pro-jazz.com. По всем вопросам пишите -> support@pro-jazz.com
17:56
179
Нет комментариев. Ваш будет первым!