Вы используете незарегистрированную версию компонента "Вкладки"!

Поиск

(Avant-Garde Jazz, Free Improvisation, Noise) Nohome (Caspar Brotzmann, Marino Pliakas, Michael Wertmuller, FM Einheit) - Nohome - 2013, FLAC (tracks+.cue), lossless

(Avant-Garde Jazz, Free Improvisation, Noise) Nohome (Caspar Brotzmann, Marino Pliakas, Michael Wertmuller, FM Einheit) - Nohome - 2013, FLAC (tracks+.cue), lossless
Треклист:
Nohome (Caspar Brotzmann, Marino Pliakas, Michael Wertmuller, FM Einheit) / Nohome
Жанр: Avant-Garde Jazz, Free Improvisation, Noise
Страна-производитель диска: Austria
Год издания: 2013
Издатель (лейбл): Trost Records
Номер по каталогу: TR 119
Страна: Germany
Аудиокодек: FLAC (*.flac)
Тип рипа: tracks+.cue
Битрейт аудио: lossless
Продолжительность: 54:00
Источник (релизер): waffles.fm, Whosondephone
Наличие сканов в содержимом раздачи:
Треклист:
1 One 16:39
2 Two 15:00
3 Three 12:57
4 Four 9:22
 
Лог создания рипа
Exact Audio Copy V1.0 beta 3 from 29. August 2011
EAC extraction logfile from 24. August 2013, 20:57
Nohome / Nohome
Used drive : PLEXTOR CD-R PX-W1610A Adapter: 3 ID: 0
Read mode : Secure
Utilize accurate stream : Yes
Defeat audio cache : Yes
Make use of C2 pointers : Yes
Read offset correction : 99
Overread into Lead-In and Lead-Out : No
Fill up missing offset samples with silence : Yes
Delete leading and trailing silent blocks : No
Null samples used in CRC calculations : Yes
Used interface : Native Win32 interface for Win NT & 2000
Gap handling : Appended to previous track
Used output format : User Defined Encoder
Selected bitrate : 768 kBit/s
Quality : High
Add ID3 tag : No
Command line compressor : C:\Program Files (x86)\Exact Audio Copy\FLAC\FLAC.EXE
Additional command line options : -6 -V -T "artist=%artist%" -T "title=%title%" -T "album=%albumtitle%" -T "date=%year%" -T "tracknumber=%tracknr%" -T "genre=%genre%" %source%
TOC of the extracted CD
Track | Start | Length | Start sector | End sector
---------------------------------------------------------
1 | 0:00.00 | 16:38.39 | 0 | 74888
2 | 16:38.39 | 15:02.37 | 74889 | 142575
3 | 31:41.01 | 12:58.40 | 142576 | 200965
4 | 44:39.41 | 9:21.15 | 200966 | 243055
Track 1
Filename M:\Lossless\0\Nohome - Nohome (2013)\01 One.wav
Pre-gap length 0:00:02.00
Peak level 98.8 %
Extraction speed 4.0 X
Track quality 100.0 %
Test CRC 22E6A5E9
Copy CRC 22E6A5E9
Track not present in AccurateRip database
Copy OK
Track 2
Filename M:\Lossless\0\Nohome - Nohome (2013)\02 Two.wav
Peak level 98.8 %
Extraction speed 4.2 X
Track quality 100.0 %
Test CRC 9065C482
Copy CRC 9065C482
Track not present in AccurateRip database
Copy OK
Track 3
Filename M:\Lossless\0\Nohome - Nohome (2013)\03 Three.wav
Pre-gap length 0:00:03.03
Peak level 98.8 %
Extraction speed 4.2 X
Track quality 100.0 %
Test CRC 4DF0EFD3
Copy CRC 4DF0EFD3
Track not present in AccurateRip database
Copy OK
Track 4
Filename M:\Lossless\0\Nohome - Nohome (2013)\04 Four.wav
Pre-gap length 0:00:01.70
Peak level 98.8 %
Extraction speed 3.6 X
Track quality 99.9 %
Test CRC 6811D539
Copy CRC 6811D539
Track not present in AccurateRip database
Copy OK
None of the tracks are present in the AccurateRip database
No errors occurred
End of status report
==== Log checksum 6CC355C878721B8C002D9DF80386F82DC3E69FA367E9C807BA35AC676BE28B18 ====
------------------------------------------------------------
Exact Audio Copy V1.0 beta 3 from 29. August 2011
EAC extraction logfile from 24. August 2013, 21:28
Nohome / Nohome
Used drive : PLEXTOR CD-R PX-W1610A Adapter: 3 ID: 0
Read mode : Secure
Utilize accurate stream : Yes
Defeat audio cache : Yes
Make use of C2 pointers : Yes
Read offset correction : 99
Overread into Lead-In and Lead-Out : No
Fill up missing offset samples with silence : Yes
Delete leading and trailing silent blocks : No
Null samples used in CRC calculations : Yes
Used interface : Native Win32 interface for Win NT & 2000
Gap handling : Appended to previous track
Used output format : User Defined Encoder
Selected bitrate : 768 kBit/s
Quality : High
Add ID3 tag : No
Command line compressor : C:\Program Files (x86)\Exact Audio Copy\FLAC\FLAC.EXE
Additional command line options : -6 -V -T "artist=%artist%" -T "title=%title%" -T "album=%albumtitle%" -T "date=%year%" -T "tracknumber=%tracknr%" -T "genre=%genre%" %source%
TOC of the extracted CD
Track | Start | Length | Start sector | End sector
---------------------------------------------------------
1 | 0:00.00 | 16:38.39 | 0 | 74888
2 | 16:38.39 | 15:02.37 | 74889 | 142575
3 | 31:41.01 | 12:58.40 | 142576 | 200965
4 | 44:39.41 | 9:21.15 | 200966 | 243055
Track 1
Filename M:\Lossless\0\Nohome - Nohome (2013)\01 One.wav
Pre-gap length 0:00:02.00
Peak level 98.8 %
Extraction speed 4.0 X
Track quality 100.0 %
Test CRC 22E6A5E9
Copy CRC 22E6A5E9
Track not present in AccurateRip database
Copy OK
Track 2
Filename M:\Lossless\0\Nohome - Nohome (2013)\02 Two.wav
Peak level 98.8 %
Extraction speed 4.1 X
Track quality 100.0 %
Test CRC 9065C482
Copy CRC 9065C482
Track not present in AccurateRip database
Copy OK
Track 3
Filename M:\Lossless\0\Nohome - Nohome (2013)\03 Three.wav
Pre-gap length 0:00:03.03
Peak level 98.8 %
Extraction speed 4.2 X
Track quality 100.0 %
Test CRC 4DF0EFD3
Copy CRC 4DF0EFD3
Track not present in AccurateRip database
Copy OK
Track 4
Filename M:\Lossless\0\Nohome - Nohome (2013)\04 Four.wav
Pre-gap length 0:00:01.70
Peak level 98.8 %
Extraction speed 3.6 X
Track quality 99.9 %
Test CRC 6811D539
Copy CRC 6811D539
Track not present in AccurateRip database
Copy OK
None of the tracks are present in the AccurateRip database
No errors occurred
End of status report
==== Log checksum DAE30BAA28F2651355AC0A5971ECADA5649703BBA4FD55A44DD73D1DD5EF773D ====
------------------------------------------------------------
Exact Audio Copy V1.0 beta 3 from 29. August 2011
EAC extraction logfile from 24. August 2013, 22:36
Nohome / Nohome
Used drive : PLEXTOR CD-R PX-W1610A Adapter: 3 ID: 0
Read mode : Secure
Utilize accurate stream : Yes
Defeat audio cache : Yes
Make use of C2 pointers : Yes
Read offset correction : 99
Overread into Lead-In and Lead-Out : No
Fill up missing offset samples with silence : Yes
Delete leading and trailing silent blocks : No
Null samples used in CRC calculations : Yes
Used interface : Native Win32 interface for Win NT & 2000
Gap handling : Appended to previous track
Used output format : User Defined Encoder
Selected bitrate : 768 kBit/s
Quality : High
Add ID3 tag : No
Command line compressor : C:\Program Files (x86)\Exact Audio Copy\FLAC\FLAC.EXE
Additional command line options : -6 -V -T "artist=%artist%" -T "title=%title%" -T "album=%albumtitle%" -T "date=%year%" -T "tracknumber=%tracknr%" -T "genre=%genre%" %source%
TOC of the extracted CD
Track | Start | Length | Start sector | End sector
---------------------------------------------------------
1 | 0:00.00 | 16:38.39 | 0 | 74888
2 | 16:38.39 | 15:02.37 | 74889 | 142575
3 | 31:41.01 | 12:58.40 | 142576 | 200965
4 | 44:39.41 | 9:21.15 | 200966 | 243055
Track 1
Filename M:\Lossless\0\Nohome - Nohome (2013)\01 One.wav
Pre-gap length 0:00:02.00
Peak level 98.8 %
Extraction speed 4.0 X
Track quality 100.0 %
Test CRC 22E6A5E9
Copy CRC 22E6A5E9
Track not present in AccurateRip database
Copy OK
Track 2
Filename M:\Lossless\0\Nohome - Nohome (2013)\02 Two.wav
Peak level 98.8 %
Extraction speed 4.2 X
Track quality 100.0 %
Test CRC 9065C482
Copy CRC 9065C482
Track not present in AccurateRip database
Copy OK
Track 3
Filename M:\Lossless\0\Nohome - Nohome (2013)\03 Three.wav
Pre-gap length 0:00:03.03
Peak level 98.8 %
Extraction speed 4.2 X
Track quality 100.0 %
Test CRC 4DF0EFD3
Copy CRC 4DF0EFD3
Track not present in AccurateRip database
Copy OK
Track 4
Filename M:\Lossless\0\Nohome - Nohome (2013)\04 Four.wav
Pre-gap length 0:00:01.70
Peak level 98.8 %
Extraction speed 3.6 X
Track quality 99.9 %
Test CRC 6811D539
Copy CRC 6811D539
Track not present in AccurateRip database
Copy OK
None of the tracks are present in the AccurateRip database
No errors occurred
End of status report
==== Log checksum 2D0219FDC74C267EE77D2027A994B8B49D3C633BEDE631D0F75C53362019FF3E ====
------------------------------------------------------------
Exact Audio Copy V1.0 beta 3 from 29. August 2011
EAC extraction logfile from 24. August 2013, 22:36
Nohome / Nohome
Used drive : PLEXTOR CD-R PX-W1610A Adapter: 3 ID: 0
Read mode : Secure
Utilize accurate stream : Yes
Defeat audio cache : Yes
Make use of C2 pointers : Yes
Read offset correction : 99
Overread into Lead-In and Lead-Out : No
Fill up missing offset samples with silence : Yes
Delete leading and trailing silent blocks : No
Null samples used in CRC calculations : Yes
Used interface : Native Win32 interface for Win NT & 2000
Gap handling : Appended to previous track
Used output format : User Defined Encoder
Selected bitrate : 768 kBit/s
Quality : High
Add ID3 tag : No
Command line compressor : C:\Program Files (x86)\Exact Audio Copy\FLAC\FLAC.EXE
Additional command line options : -6 -V -T "artist=%artist%" -T "title=%title%" -T "album=%albumtitle%" -T "date=%year%" -T "tracknumber=%tracknr%" -T "genre=%genre%" %source%
TOC of the extracted CD
Track | Start | Length | Start sector | End sector
---------------------------------------------------------
1 | 0:00.00 | 16:38.39 | 0 | 74888
2 | 16:38.39 | 15:02.37 | 74889 | 142575
3 | 31:41.01 | 12:58.40 | 142576 | 200965
4 | 44:39.41 | 9:21.15 | 200966 | 243055
Track 1
Filename M:\Lossless\0\Nohome - Nohome (2013)\01 One.wav
Pre-gap length 0:00:02.00
Peak level 98.8 %
Extraction speed 4.0 X
Track quality 100.0 %
Test CRC 22E6A5E9
Copy CRC 22E6A5E9
Track not present in AccurateRip database
Copy OK
Track 2
Filename M:\Lossless\0\Nohome - Nohome (2013)\02 Two.wav
Peak level 98.8 %
Extraction speed 4.2 X
Track quality 100.0 %
Test CRC 9065C482
Copy CRC 9065C482
Track not present in AccurateRip database
Copy OK
Track 3
Filename M:\Lossless\0\Nohome - Nohome (2013)\03 Three.wav
Pre-gap length 0:00:03.03
Peak level 98.8 %
Extraction speed 4.2 X
Track quality 100.0 %
Test CRC 4DF0EFD3
Copy CRC 4DF0EFD3
Track not present in AccurateRip database
Copy OK
Track 4
Filename M:\Lossless\0\Nohome - Nohome (2013)\04 Four.wav
Pre-gap length 0:00:01.70
Peak level 98.8 %
Extraction speed 3.6 X
Track quality 99.9 %
Test CRC 6811D539
Copy CRC 6811D539
Track not present in AccurateRip database
Copy OK
None of the tracks are present in the AccurateRip database
No errors occurred
End of status report
==== Log checksum 2D0219FDC74C267EE77D2027A994B8B49D3C633BEDE631D0F75C53362019FF3E ====
------------------------------------------------------------
Exact Audio Copy V1.0 beta 3 from 29. August 2011
EAC extraction logfile from 24. August 2013, 22:57
Nohome / Nohome
Used drive : PLEXTOR CD-R PX-W1610A Adapter: 3 ID: 0
Read mode : Secure
Utilize accurate stream : Yes
Defeat audio cache : Yes
Make use of C2 pointers : No
Read offset correction : 99
Overread into Lead-In and Lead-Out : No
Fill up missing offset samples with silence : Yes
Delete leading and trailing silent blocks : No
Null samples used in CRC calculations : Yes
Used interface : Native Win32 interface for Win NT & 2000
Gap handling : Appended to previous track
Used output format : User Defined Encoder
Selected bitrate : 768 kBit/s
Quality : High
Add ID3 tag : No
Command line compressor : C:\Program Files (x86)\Exact Audio Copy\FLAC\FLAC.EXE
Additional command line options : -6 -V -T "artist=%artist%" -T "title=%title%" -T "album=%albumtitle%" -T "date=%year%" -T "tracknumber=%tracknr%" -T "genre=%genre%" %source%
TOC of the extracted CD
Track | Start | Length | Start sector | End sector
---------------------------------------------------------
1 | 0:00.00 | 16:38.39 | 0 | 74888
2 | 16:38.39 | 15:02.37 | 74889 | 142575
3 | 31:41.01 | 12:58.40 | 142576 | 200965
4 | 44:39.41 | 9:21.15 | 200966 | 243055
Track 1
Filename M:\Lossless\0\Nohome - Nohome (2013)\01 One.wav
Pre-gap length 0:00:02.00
Copy aborted
Track 2
Copy aborted
Track 3
Pre-gap length 0:00:03.03
Copy aborted
Track 4
Pre-gap length 0:00:01.70
Copy aborted
No tracks could be verified as accurate
There were errors
End of status report
==== Log checksum 09524F2D912B3651C7991E13966AB350E8D6D9A207E463DBE8F131EE569E88C1 ====
------------------------------------------------------------
Exact Audio Copy V1.0 beta 3 from 29. August 2011
EAC extraction logfile from 25. August 2013, 0:16
Nohome / Nohome
Used drive : PLEXTOR CD-R PX-W1610A Adapter: 3 ID: 0
Read mode : Secure
Utilize accurate stream : Yes
Defeat audio cache : Yes
Make use of C2 pointers : No
Read offset correction : 99
Overread into Lead-In and Lead-Out : No
Fill up missing offset samples with silence : Yes
Delete leading and trailing silent blocks : No
Null samples used in CRC calculations : Yes
Used interface : Native Win32 interface for Win NT & 2000
Gap handling : Appended to previous track
Used output format : User Defined Encoder
Selected bitrate : 768 kBit/s
Quality : High
Add ID3 tag : No
Command line compressor : C:\Program Files (x86)\Exact Audio Copy\FLAC\FLAC.EXE
Additional command line options : -6 -V -T "artist=%artist%" -T "title=%title%" -T "album=%albumtitle%" -T "date=%year%" -T "tracknumber=%tracknr%" -T "genre=%genre%" %source%
TOC of the extracted CD
Track | Start | Length | Start sector | End sector
---------------------------------------------------------
1 | 0:00.00 | 16:38.39 | 0 | 74888
2 | 16:38.39 | 15:02.37 | 74889 | 142575
3 | 31:41.01 | 12:58.40 | 142576 | 200965
4 | 44:39.41 | 9:21.15 | 200966 | 243055
Track 1
Filename M:\Lossless\0\Nohome - Nohome (2013)\01 One.wav
Pre-gap length 0:00:02.00
Peak level 98.8 %
Extraction speed 1.9 X
Track quality 100.0 %
Test CRC 22E6A5E9
Copy CRC 22E6A5E9
Track not present in AccurateRip database
Copy OK
Track 2
Filename M:\Lossless\0\Nohome - Nohome (2013)\02 Two.wav
Peak level 98.8 %
Extraction speed 1.9 X
Track quality 100.0 %
Test CRC 9065C482
Copy CRC 9065C482
Track not present in AccurateRip database
Copy OK
Track 3
Filename M:\Lossless\0\Nohome - Nohome (2013)\03 Three.wav
Pre-gap length 0:00:03.03
Peak level 98.8 %
Extraction speed 1.8 X
Track quality 99.9 %
Test CRC 4DF0EFD3
Copy CRC 4DF0EFD3
Track not present in AccurateRip database
Copy OK
Track 4
Filename M:\Lossless\0\Nohome - Nohome (2013)\04 Four.wav
Pre-gap length 0:00:01.70
Peak level 98.8 %
Extraction speed 1.9 X
Track quality 100.0 %
Test CRC 6811D539
Copy CRC 6811D539
Track not present in AccurateRip database
Copy OK
None of the tracks are present in the AccurateRip database
No errors occurred
End of status report
==== Log checksum A7301341B1878D7BB3B8A61E56CC40194AA41C3C8E5582C43124FAA32ED5F938 ====
 
Содержание индексной карты (.CUE)
REM GENRE Pop/Rock
REM DATE 2013
REM DISCID 210CA804
REM COMMENT "ExactAudioCopy v1.0b3"
CATALOG 9120036681248
PERFORMER "Nohome"
TITLE "Nohome"
FILE "01 One.wav" WAVE
TRACK 01 AUDIO
TITLE "One"
PERFORMER "Nohome"
ISRC ATD411306001
INDEX 01 00:00:00
FILE "02 Two.wav" WAVE
TRACK 02 AUDIO
TITLE "Two"
PERFORMER "Nohome"
ISRC ATD411306002
INDEX 01 00:00:00
TRACK 03 AUDIO
TITLE "Three"
PERFORMER "Nohome"
ISRC ATD411306003
INDEX 00 14:59:34
FILE "03 Three.wav" WAVE
INDEX 01 00:00:00
TRACK 04 AUDIO
TITLE "Four"
PERFORMER "Nohome"
ISRC ATD411306004
INDEX 00 12:56:45
FILE "04 Four.wav" WAVE
INDEX 01 00:00:00
 
Лог проверки качества
d:\>d:\aucdtect -d/-m0 d:\zzz\*.wav
auCDtect: CD records authenticity detector, version 0.8.2
Copyright (c) 2004 Oleg Berngardt. All rights reserved.
Copyright (c) 2004 Alexander Djourik. All rights reserved.
------------------------------------------------------------
Processing file: [01. One.wav]
------------------------------------------------------------
This track looks like CDDA with probability 100%
------------------------------------------------------------
Processing file: [02. Two.wav]
------------------------------------------------------------
This track looks like CDDA with probability 100%
------------------------------------------------------------
Processing file: [03. Three.wav]
------------------------------------------------------------
This track looks like CDDA with probability 100%
------------------------------------------------------------
Processing file: [04. Four.wav]
------------------------------------------------------------
This track looks like CDDA with probability 100%
------------------------------------------------------------
Final Conclusion:
------------------------------------------------------------
These tracks looks like CDDA with probability 100%
 
Состав
Drums – Michael Wertmüller
Electric Bass – Marino Pliakas
Electric Guitar – Caspar Brötzmann
Guest [Steel] – FM Einheit (tracks: 3, 4)
Any questions -> support@pro-jazz.com. По всем вопросам пишите -> support@pro-jazz.com
17:56
196
Нет комментариев. Ваш будет первым!