Вы используете незарегистрированную версию компонента "Вкладки"!

Поиск

(Avant-Garde, Not Two Records, Chamber Music) [CD] Scott Fields Ensemble (w/ Daniel Levin, Jessica Pavone, Elliott Sharp a.o.) - Frail Lumber - 2011, FLAC (tracks+.cue), lossless

(Avant-Garde, Not Two Records, Chamber Music) [CD] Scott Fields Ensemble (w/ Daniel Levin, Jessica Pavone, Elliott Sharp a.o.) - Frail Lumber - 2011, FLAC (tracks+.cue), lossless
Треклист:
Scott Fields Ensemble / Frail Lumber
Жанр: Avant-Garde, Not Two Records, Chamber Music
Носитель: CD
Страна-производитель диска: Poland
Год издания: 2011
Издатель (лейбл): Not Two Records
Номер по каталогу: MW 858-2
Страна: US
Аудиокодек: FLAC (*.flac)
Тип рипа: tracks+.cue
Битрейт аудио: lossless
Продолжительность: 67:37
Источник (релизер): свой фирменный диск
Наличие сканов в содержимом раздачи:
Треклист:
1. Ziricote 10:46
2. Koa 6:27
3. Paulownia 19:03
4. Cocobolo 15:59
5. Bubinga 14:49
 
Лог создания рипа
Exact Audio Copy V1.0 beta 3 from 29. August 2011
EAC extraction logfile from 21. June 2014, 15:13
Scott Fields Ensemble / Frail Lumber
Used drive : PIONEER DVD-RW DVR-115D Adapter: 0 ID: 0
Read mode : Secure
Utilize accurate stream : Yes
Defeat audio cache : Yes
Make use of C2 pointers : No
Read offset correction : 48
Overread into Lead-In and Lead-Out : No
Fill up missing offset samples with silence : Yes
Delete leading and trailing silent blocks : No
Null samples used in CRC calculations : Yes
Used interface : Installed external ASPI interface
Gap handling : Appended to previous track
Used output format : User Defined Encoder
Selected bitrate : 896 kBit/s
Quality : High
Add ID3 tag : No
Command line compressor : C:\Program Files\Exact Audio Copy\FLAC\FLAC.EXE
Additional command line options : -6 -V -T "ARTIST=%artist%" -T "TITLE=%title%" -T "ALBUM=%albumtitle%" -T "DATE=%year%" -T "TRACKNUMBER=%tracknr%" -T "GENRE=%genre%" -T "COMMENT=%comment%" -T "BAND=%albuminterpret%" -T "COMPOSER=%composer%" %haslyrics%--tag-from-file=LYRICS="%lyricsfile%"%haslyrics% -T "DISCNUMBER=%cdnumber%" -T "TOTALDISCS=%totalcds%" -T "TOTALTRACKS=%numtracks%" %hascover%--picture="%coverfile%"%hascover% %source% -o %dest%
TOC of the extracted CD
Track | Start | Length | Start sector | End sector
---------------------------------------------------------
1 | 0:00.00 | 10:53.46 | 0 | 49020
2 | 10:53.46 | 6:35.06 | 49021 | 78651
3 | 17:28.52 | 19:12.15 | 78652 | 165066
4 | 36:40.67 | 16:07.07 | 165067 | 237598
5 | 52:47.74 | 14:49.06 | 237599 | 304279
Track 1
Filename D:\zzz\01 - Ziricote.wav
Pre-gap length 0:00:02.00
Peak level 93.0 %
Extraction speed 5.1 X
Track quality 100.0 %
Test CRC 43ADF40F
Copy CRC 43ADF40F
Accurately ripped (confidence 1) [5CDA517E] (AR v2)
Copy OK
Track 2
Filename D:\zzz\02 - Koa.wav
Pre-gap length 0:00:06.74
Peak level 94.1 %
Extraction speed 5.3 X
Track quality 99.9 %
Test CRC 903E1632
Copy CRC 903E1632
Accurately ripped (confidence 1) [74952BC4] (AR v2)
Copy OK
Track 3
Filename D:\zzz\03 - Paulownia.wav
Pre-gap length 0:00:08.02
Peak level 95.1 %
Extraction speed 7.1 X
Track quality 100.0 %
Test CRC C71B8A18
Copy CRC C71B8A18
Accurately ripped (confidence 1) [B17F8374] (AR v2)
Copy OK
Track 4
Filename D:\zzz\04 - Cocobolo.wav
Pre-gap length 0:00:08.19
Peak level 95.0 %
Extraction speed 8.0 X
Track quality 99.9 %
Test CRC E079ABCD
Copy CRC E079ABCD
Accurately ripped (confidence 1) [DDD31D87] (AR v2)
Copy OK
Track 5
Filename D:\zzz\05 - Bubinga.wav
Pre-gap length 0:00:08.03
Peak level 92.9 %
Extraction speed 1.0 X
Track quality 99.9 %
Test CRC 6F42BB53
Copy CRC 6F42BB53
Accurately ripped (confidence 1) [7F15255A] (AR v2)
Copy OK
All tracks accurately ripped
No errors occurred
End of status report
==== Log checksum 67F83EB5EE85E194DB03347559D7C25FF64144EBCAE3ED0D11507A2DDBEAB5DC ====
 
Содержание индексной карты (.CUE)
REM GENRE "Chamber Music"
REM DATE 2011
REM DISCID 310FD905
REM COMMENT "ExactAudioCopy v1.0b3"
PERFORMER "Scott Fields Ensemble"
TITLE "Frail Lumber"
FILE "01 - Ziricote.wav" WAVE
TRACK 01 AUDIO
TITLE "Ziricote"
PERFORMER "Scott Fields Ensemble"
FLAGS DCP
INDEX 01 00:00:00
TRACK 02 AUDIO
TITLE "Koa"
PERFORMER "Scott Fields Ensemble"
FLAGS DCP
INDEX 00 10:46:47
FILE "02 - Koa.wav" WAVE
INDEX 01 00:00:00
TRACK 03 AUDIO
TITLE "Paulownia"
PERFORMER "Scott Fields Ensemble"
FLAGS DCP
INDEX 00 06:27:04
FILE "03 - Paulownia.wav" WAVE
INDEX 01 00:00:00
TRACK 04 AUDIO
TITLE "Cocobolo"
PERFORMER "Scott Fields Ensemble"
FLAGS DCP
INDEX 00 19:03:71
FILE "04 - Cocobolo.wav" WAVE
INDEX 01 00:00:00
TRACK 05 AUDIO
TITLE "Bubinga"
PERFORMER "Scott Fields Ensemble"
FLAGS DCP
INDEX 00 15:59:04
FILE "05 - Bubinga.wav" WAVE
INDEX 01 00:00:00
 
Лог проверки качества
d:\>d:\aucdtect -d/-m0 d:\zzz\*.wav
auCDtect: CD records authenticity detector, version 0.8.2
Copyright (c) 2004 Oleg Berngardt. All rights reserved.
Copyright (c) 2004 Alexander Djourik. All rights reserved.
------------------------------------------------------------
Processing file: [01. Ziricote.wav]
------------------------------------------------------------
This track looks like CDDA with probability 100%
------------------------------------------------------------
Processing file: [02. Koa.wav]
------------------------------------------------------------
This track looks like CDDA with probability 100%
------------------------------------------------------------
Processing file: [03. Paulownia.wav]
------------------------------------------------------------
This track looks like CDDA with probability 100%
------------------------------------------------------------
Processing file: [04. Cocobolo.wav]
------------------------------------------------------------
This track looks like CDDA with probability 100%
------------------------------------------------------------
Processing file: [05. Bubinga.wav]
------------------------------------------------------------
This track looks like CDDA with probability 100%
------------------------------------------------------------
Final Conclusion:
------------------------------------------------------------
These tracks looks like CDDA with probability 100%
Доп. информация:
 
Album Info & SquidsEar Review
Compositions by Scott Fields
Recorded June 5, 2010 at the Loft, Cologne, Germany
Mixed and mastered at Topaz Studios, Cologne, Germany
Christian Heck - recording engineer
Reinhard Kobialka - mixing and mastering engineer
Cover image: Letitia Gaba
Ensemble photo: image from a documentary by Pavel Borodin
Cover design: Marek Wajda
Scott Fields plays a CP Thornton Jazz Elite guitar
Project support provided in part by the Sparkasse KolnBonn Forderprogramm and the Stadt Koln Kulturamt
Scott Fields' penchant for overlaying antithetical forms of instrumental action — typically involving cross-pollinations of improvised sections and more composed structures — finds one of its peak expressions in Frail Lumber, a project carried on with the aid of a string ensemble featuring cellists Daniel Levin and Scott Roller, violists Jessica Pavone and Vincent Royer, violinists Alex Lindner and Mary Oliver plus Elliott Sharp on guitar as well as the leader. The group's partitioning in four twos of equal instruments is obvious, but this does not imply separation between the parts or disorganized and fragmented music. The five chapters — a total of about 67 minutes — appear in fact as mutating aggregates of harmonic question marks where, in turn, beauty of timbre, displacement of pulse and a general disinclination to follow pre-set strides acquire importance depending on the participants' instinctive gestures and choices.
Speaking of which, Fields did give instructions to the performers while setting their decisions and respective sensibilities within a looping fabric where — by wordlessly nodding at certain points — everyone can "invite" other members to join the circumstantial happenings with on-the-spot phrases and movements that help the agglomerative flow to remain complex in relative stability. The composer calls this procedure a "fancy cueing system", but the lightness of the definition is inversely proportional to the gravity of the resulting music. We remain affected by the awesome electro/acoustic chromaticity, by alternating relative quietness and gradually mounting nervousness, and especially by how effectively a procedure that might potentially lead to untidy scenarios consolidates instead the musicians' diverse voices and personalities into a cohesive unit. The wealth of involuntarily synchronic sketches even permits the camouflaging of melodic snippets amidst shifting accumulations of tension, as evidenced by the opening moments of "Paulownia" (all titles refer to types of woods and/or trees).
Make no mistake: this is not an album for enticing an unsuspecting partner during a candlelight dinner. But it's definitely one of the Cologne-based Chicagoan's finest ever releases.
 
Состав
Scott Fields: electric guitar
Daniel Levin: cello
Axel Lindner: violin
Mary Oliver: violin
Jessica Pavone: viola
Scott Roller: cello
Vincent Royer: viola
Elliott Sharp: electric guitar
По всем вопросам пишите личное сообщение пользователю M0p94ok.
03:56
197
Нет комментариев. Ваш будет первым!