Поиск

(Avant-Garde,Modern Creative) William Parker - Luc's Lantern - 2005, APE (image + .cue), lossless

Треклист:
William Parker- Luc's Lantern
Страна: USA
Жанр: Avant-Garde,Modern Creative
Год выпуска: 2005
Формат: APE (image + .cue)
Битрейт аудио: lossless
Продолжительность: 46:37
Трэклист:
1 Adena. Parker 5:12
2 Song for Tyler.Parker 4:17
3 Mourning Sunset.Parker 7:08
4 Evening Star Song.Parker 3:32
5 Luc's Lantern.Parker 6:32
6 Jaki.Parker 4:17
7 Bud in Alphaville.Parker 3:34
8 Charcoal Flower.Parker 5:13
9 Phoenix. Parker 5:27
10 Candlesticks on the Lake .Parker 1:20
Доп. информация
: William Parker- Bass
Matthew Shipp- A&R provided
Michael Thompson- Drums
Eri Yamamoto- Piano
Сканы в наличии.
http://rutracker.org/forum/viewtopic.php?t=673768 -альбом,где играет William Parker- Bass .
http://rutracker.org/forum/viewtopic.php?t=709552 -еще один альбом,где играет William Parker- Bass .
 
скрытый текст
Exact Audio Copy V0.99 prebeta 3 from 28. July 2007
Отчёт EAC об извлечении, выполненном 2. марта 2008, 21:16
William Parker / Luc's Lantern
Дисковод: ASUS DRW-1608P3S Adapter: 0 ID: 0
Режим чтения : Достоверность
Использование точного потока : Да
Отключение кэша аудио : Да
Использование указателей C2 : Нет
Коррекция смещения при чтении : 48
Способность читать области Lead-in и Lead-out : Нет
Заполнение пропущенных сэмплов тишиной : Да
Удаление блоков с тишиной в начале и конце : Нет
При вычислениях CRC использовались нулевые сэмплы : Да
Интерфейс : Установленный внешний ASPI-интерфейс
Выходной формат : Monkey's Audio Lossless Encoder v3.99 DLL
Формат сэмплов : High Lossless Compression
TOC извлечённого CD
Трек | Старт | Длительность | Начальный сектор | Конечный сектор
---------------------------------------------------------------------
1 | 0:00.00 | 5:12.05 | 0 | 23404
2 | 5:12.05 | 4:17.69 | 23405 | 42748
3 | 9:29.74 | 7:08.44 | 42749 | 74892
4 | 16:38.43 | 3:32.54 | 74893 | 90846
5 | 20:11.22 | 6:32.47 | 90847 | 120293
6 | 26:43.69 | 4:17.22 | 120294 | 139590
7 | 31:01.16 | 3:34.53 | 139591 | 155693
8 | 34:35.69 | 5:13.13 | 155694 | 179181
9 | 39:49.07 | 5:27.67 | 179182 | 203773
10 | 45:16.74 | 1:20.10 | 203774 | 209783
Характеристики диапазона извлечения и сообщения об ошибках
Выбранный диапазон
Имя файла C:\Documents and Settings\1\Рабочий стол\William Parker - Luc's Lantern.ape
Пиковый уровень 98.8 %
Качество диапазона 100.0 %
CRC теста 1C2B4C56
CRC копии 1C2B4C56
Копирование... OK
Ошибок не произошло
Конец отчёта
Приватный:
Нет (DHT включён)
Размер:
264.65 Мб (277,510,210 байт) » файлов: 9
Участники:
0 раздают, 0 качают (0 участников всего)
Внешние участники:
2 раздают, 1 качают (3 участников всего) [ Обновить ]
Есть вопросы - пишите личное сообщение пользователю M0p94ok.
23:49
58
Нет комментариев. Ваш будет первым!