Поиск

(Avant-Garde Jazz, Free Jazz, Modern Creative) Medeski Martin & Wood - Farmer's Reserve - 2004, FLAC (image + .cue), lossless

(Avant-Garde Jazz, Free Jazz, Modern Creative) Medeski Martin & Wood - Farmer's Reserve - 2004, FLAC (image + .cue), lossless
Треклист:
Medeski Martin & Wood - Farmer's Reserve
Страна: USA
Жанр: Jazz
Год выпуска: 2004
Формат: FLAC (image + .cue)
Битрейт аудио: lossless
Продолжительность: 57:41
Трэклист:
Part I
Part II
Part III
Epilogue
Доп. информация:
John Medeski: prepared piano, toy piano, Yamaha CS01
Billy Martin: talking drum, drum set, woodblocks, gongs, cowbells, metal, seedpods, rattles
Chris Wood: acoustic bass, guitar
Recorder February 11, 1997 at The Shack, Hawaii
 
EAC Report
Exact Audio Copy V0.99 prebeta 4 from 23. January 2008
EAC extraction logfile from 27. February 2008, 23:42
Medeski Martin & Wood / Farmer's Reserve
Used drive : MATSHITADVD-RAM UJ-840S Adapter: 1 ID: 0
Read mode : Secure
Utilize accurate stream : Yes
Defeat audio cache : Yes
Make use of C2 pointers : No
Read offset correction : 102
Overread into Lead-In and Lead-Out : No
Fill up missing offset samples with silence : Yes
Delete leading and trailing silent blocks : No
Null samples used in CRC calculations : No
Used interface : Installed external ASPI interface
Used output format : User Defined Encoder
Selected bitrate : 1024 kBit/s
Quality : High
Add ID3 tag : No
Command line compressor : C:\Program Files\Exact Audio Copy\FLAC\FLAC.EXE
Additional command line options : -6 -V -T "ARTIST=%a" -T "TITLE=%t" -T "ALBUM=%g" -T "DATE=%y" -T "TRACKNUMBER=%n" -T "GENRE=%m" -T "COMMENT=%e" %s -o %d
TOC of the extracted CD
Track | Start | Length | Start sector | End sector
---------------------------------------------------------
1 | 0:00.00 | 4:02.00 | 0 | 18149
2 | 4:02.00 | 2:55.67 | 18150 | 31341
3 | 6:57.67 | 4:23.12 | 31342 | 51078
4 | 11:21.04 | 3:46.56 | 51079 | 68084
5 | 15:07.60 | 6:35.13 | 68085 | 97722
6 | 21:42.73 | 3:23.41 | 97723 | 112988
7 | 25:06.39 | 2:34.72 | 112989 | 124610
8 | 27:41.36 | 7:10.31 | 124611 | 156891
9 | 34:51.67 | 3:09.45 | 156892 | 171111
10 | 38:01.37 | 4:27.33 | 171112 | 191169
11 | 42:28.70 | 15:12.38 | 191170 | 259607
Range status and errors
Selected range
Filename C:\Documents and Settings\Igor\My Documents\Upload\Medeski Martin & Wood\Medeski Martin & Wood - Farmer's Reserve.wav
Peak level 98.9 %
Range quality 100.0 %
Copy CRC 1B9EB2EF
Copy OK
No errors occurred
AccurateRip summary
Track 1 accurately ripped (confidence 2) [F3D3BAEA]
Track 2 accurately ripped (confidence 2) [5A0123A8]
Track 3 accurately ripped (confidence 2) [E737FD2A]
Track 4 accurately ripped (confidence 2) [5300CACE]
Track 5 accurately ripped (confidence 2) [35285219]
Track 6 accurately ripped (confidence 2) [86E32F91]
Track 7 accurately ripped (confidence 2) [85B51A00]
Track 8 accurately ripped (confidence 2) [C6A3EEFE]
Track 9 accurately ripped (confidence 2) [D779D4EF]
Track 10 accurately ripped (confidence 2) [84C1DD3D]
Track 11 accurately ripped (confidence 2) [AA8C2112]
All tracks accurately ripped
End of status report
Приватный:
Нет (DHT включён)
Размер:
329.41 Мб (345,406,786 байт) » файлов: 5
Участники:
0 раздают, 0 качают (0 участников всего)
Внешние участники:
3 раздают, 1 качают (4 участников всего) [ Обновить ]
Есть вопросы - пишите личное сообщение пользователю M0p94ok.
23:48
57
Нет комментариев. Ваш будет первым!