Вы используете незарегистрированную версию компонента "Вкладки"!

Поиск

(Avant-Garde, Modern Creative, Vocal Jazz) Shelley Hirsch & Simon Ho - Where Were You Then? - 2012, APE (tracks+.cue), lossless

(Avant-Garde, Modern Creative, Vocal Jazz) Shelley Hirsch & Simon Ho - Where Were You Then? - 2012, APE (tracks+.cue), lossless
Треклист:
Shelley Hirsch & Simon Ho / Where Were You Then?
Жанр: Avant-Garde, Modern Creative, Vocal Jazz
Страна-производитель диска: US
Год издания: 2012
Издатель (лейбл): Tzadik
Номер по каталогу: #7638
Аудиокодек: APE (*.ape)
Тип рипа: tracks+.cue
Битрейт аудио: lossless
Продолжительность: 64:59
Источник (релизер): Aeacos Спасибо!
Наличие сканов в содержимом раздачи: да
Треклист:
1. Kathy Ray - 2:28
2. Maxime Cardon - 3:23
3. Never - 4:01
4. Hitchhiking/Heinz - 8:58
5. Giselle - 2:43
6. Julius - 3:01
7. Baa Baa Black Sheep - 2:55
8. Online Dating - 2:28
9. Where Were You Then? - 4:17
10. Jim Gartenberg - 2:27
11. Take Down the Wall - 2:57
12. Mining the Light - 3:54
13. The Nursing Home - 8:06
14. Floundering - 3:03
15. Earl and Me - 5:49
16. You Would Have Loved It! - 4:19
 
Лог создания рипа
Exact Audio Copy V1.0 beta 3 from 29. August 2011
EAC extraction logfile from 14. March 2012, 2:49
Shelley Hirsch - Simon Ho / Where Were You Then?
Used drive : PBDS DVD+-RW DS-8W1P Adapter: 0 ID: 0
Read mode : Secure
Utilize accurate stream : Yes
Defeat audio cache : Yes
Make use of C2 pointers : No
Read offset correction : 594
Overread into Lead-In and Lead-Out : No
Fill up missing offset samples with silence : Yes
Delete leading and trailing silent blocks : No
Null samples used in CRC calculations : Yes
Used interface : Native Win32 interface for Win NT & 2000
Gap handling : Appended to previous track
Used output format : Internal WAV Routines
Sample format : 44.100 Hz; 16 Bit; Stereo
TOC of the extracted CD
Track | Start | Length | Start sector | End sector
---------------------------------------------------------
1 | 0:00.00 | 2:28.63 | 0 | 11162
2 | 2:28.63 | 3:23.27 | 11163 | 26414
3 | 5:52.15 | 4:01.27 | 26415 | 44516
4 | 9:53.42 | 8:58.57 | 44517 | 84923
5 | 18:52.24 | 2:43.57 | 84924 | 97205
6 | 21:36.06 | 3:01.13 | 97206 | 110793
7 | 24:37.19 | 2:55.33 | 110794 | 123951
8 | 27:32.52 | 2:28.33 | 123952 | 135084
9 | 30:01.10 | 4:17.15 | 135085 | 154374
10 | 34:18.25 | 2:27.31 | 154375 | 165430
11 | 36:45.56 | 2:57.46 | 165431 | 178751
12 | 39:43.27 | 3:54.69 | 178752 | 196370
13 | 43:38.21 | 8:06.49 | 196371 | 232869
14 | 51:44.70 | 3:03.72 | 232870 | 246666
15 | 54:48.67 | 5:49.11 | 246667 | 272852
16 | 60:38.03 | 4:19.42 | 272853 | 292319
Track 1
Filename F:\Upload\Shelley Hirsch & Simon Ho - Where Were You Then (2012) Lossless\01 Kathy Ray.wav
Pre-gap length 0:00:02.00
Peak level 93.2 %
Extraction speed 0.9 X
Track quality 100.0 %
Test CRC 6707F59F
Copy CRC 6707F59F
Track not present in AccurateRip database
Copy OK
Track 2
Filename F:\Upload\Shelley Hirsch & Simon Ho - Where Were You Then (2012) Lossless\02 Maxime Cardon.wav
Peak level 93.2 %
Extraction speed 1.0 X
Track quality 100.0 %
Test CRC ED4D4855
Copy CRC ED4D4855
Track not present in AccurateRip database
Copy OK
Track 3
Filename F:\Upload\Shelley Hirsch & Simon Ho - Where Were You Then (2012) Lossless\03 Never.wav
Peak level 96.6 %
Extraction speed 1.1 X
Track quality 99.9 %
Test CRC 3089FA34
Copy CRC 3089FA34
Track not present in AccurateRip database
Copy OK
Track 4
Filename F:\Upload\Shelley Hirsch & Simon Ho - Where Were You Then (2012) Lossless\04 Hitchhiking,Heinz.wav
Peak level 96.6 %
Extraction speed 1.4 X
Track quality 100.0 %
Test CRC 405D8697
Copy CRC 405D8697
Track not present in AccurateRip database
Copy OK
Track 5
Filename F:\Upload\Shelley Hirsch & Simon Ho - Where Were You Then (2012) Lossless\05 Giselle.wav
Peak level 96.6 %
Extraction speed 1.3 X
Track quality 100.0 %
Test CRC 73A1DE22
Copy CRC 73A1DE22
Track not present in AccurateRip database
Copy OK
Track 6
Filename F:\Upload\Shelley Hirsch & Simon Ho - Where Were You Then (2012) Lossless\06 Julius.wav
Peak level 96.6 %
Extraction speed 1.4 X
Track quality 100.0 %
Test CRC 04B437CF
Copy CRC 04B437CF
Track not present in AccurateRip database
Copy OK
Track 7
Filename F:\Upload\Shelley Hirsch & Simon Ho - Where Were You Then (2012) Lossless\07 Baa Baa Black Sheep.wav
Peak level 96.6 %
Extraction speed 1.4 X
Track quality 100.0 %
Test CRC FB28CACD
Copy CRC FB28CACD
Track not present in AccurateRip database
Copy OK
Track 8
Filename F:\Upload\Shelley Hirsch & Simon Ho - Where Were You Then (2012) Lossless\08 Online Dating.wav
Peak level 96.6 %
Extraction speed 1.4 X
Track quality 100.0 %
Test CRC B5806425
Copy CRC B5806425
Track not present in AccurateRip database
Copy OK
Track 9
Filename F:\Upload\Shelley Hirsch & Simon Ho - Where Were You Then (2012) Lossless\09 Where Were You Then.wav
Peak level 96.6 %
Extraction speed 1.6 X
Track quality 100.0 %
Test CRC FCC9692B
Copy CRC FCC9692B
Track not present in AccurateRip database
Copy OK
Track 10
Filename F:\Upload\Shelley Hirsch & Simon Ho - Where Were You Then (2012) Lossless\10 Jim Gartenberg.wav
Peak level 79.3 %
Extraction speed 1.4 X
Track quality 99.9 %
Test CRC 7798E628
Copy CRC 7798E628
Track not present in AccurateRip database
Copy OK
Track 11
Filename F:\Upload\Shelley Hirsch & Simon Ho - Where Were You Then (2012) Lossless\11 Take Down the Wall.wav
Peak level 96.6 %
Extraction speed 1.5 X
Track quality 99.9 %
Test CRC 516997D1
Copy CRC 516997D1
Track not present in AccurateRip database
Copy OK
Track 12
Filename F:\Upload\Shelley Hirsch & Simon Ho - Where Were You Then (2012) Lossless\12 Mining the Light.wav
Peak level 96.6 %
Extraction speed 1.8 X
Track quality 100.0 %
Test CRC FF9CDAB2
Copy CRC FF9CDAB2
Track not present in AccurateRip database
Copy OK
Track 13
Filename F:\Upload\Shelley Hirsch & Simon Ho - Where Were You Then (2012) Lossless\13 The Nursing Home.wav
Peak level 94.3 %
Extraction speed 2.0 X
Track quality 100.0 %
Test CRC 48B01CE0
Copy CRC 48B01CE0
Track not present in AccurateRip database
Copy OK
Track 14
Filename F:\Upload\Shelley Hirsch & Simon Ho - Where Were You Then (2012) Lossless\14 Floundering.wav
Peak level 96.6 %
Extraction speed 1.8 X
Track quality 100.0 %
Test CRC 14B19F4D
Copy CRC 14B19F4D
Track not present in AccurateRip database
Copy OK
Track 15
Filename F:\Upload\Shelley Hirsch & Simon Ho - Where Were You Then (2012) Lossless\15 Earl and Me.wav
Peak level 67.9 %
Extraction speed 2.1 X
Track quality 100.0 %
Test CRC 8DCBC31D
Copy CRC 8DCBC31D
Track not present in AccurateRip database
Copy OK
Track 16
Filename F:\Upload\Shelley Hirsch & Simon Ho - Where Were You Then (2012) Lossless\16 You Would Have Loved It!.wav
Peak level 96.6 %
Extraction speed 2.1 X
Track quality 100.0 %
Test CRC 28487733
Copy CRC 28487733
Track not present in AccurateRip database
Copy OK
None of the tracks are present in the AccurateRip database
No errors occurred
End of status report
 
Содержание индексной карты (.CUE)
REM GENRE Other
REM DATE 2012
REM DISCID C90F3910
REM COMMENT "ExactAudioCopy v1.0b3"
PERFORMER "Shelley Hirsch - Simon Ho"
TITLE "Where Were You Then?"
FILE "01 Kathy Ray.wav" WAVE
TRACK 01 AUDIO
TITLE "Kathy Ray"
PERFORMER "Shelley Hirsch - Simon Ho"
INDEX 01 00:00:00
FILE "02 Maxime Cardon.wav" WAVE
TRACK 02 AUDIO
TITLE "Maxime Cardon"
PERFORMER "Shelley Hirsch - Simon Ho"
INDEX 01 00:00:00
FILE "03 Never.wav" WAVE
TRACK 03 AUDIO
TITLE "Never"
PERFORMER "Shelley Hirsch - Simon Ho"
INDEX 01 00:00:00
FILE "04 Hitchhiking,Heinz.wav" WAVE
TRACK 04 AUDIO
TITLE "Hitchhiking/Heinz"
PERFORMER "Shelley Hirsch - Simon Ho"
INDEX 01 00:00:00
FILE "05 Giselle.wav" WAVE
TRACK 05 AUDIO
TITLE "Giselle"
PERFORMER "Shelley Hirsch - Simon Ho"
INDEX 01 00:00:00
FILE "06 Julius.wav" WAVE
TRACK 06 AUDIO
TITLE "Julius"
PERFORMER "Shelley Hirsch - Simon Ho"
INDEX 01 00:00:00
FILE "07 Baa Baa Black Sheep.wav" WAVE
TRACK 07 AUDIO
TITLE "Baa Baa Black Sheep"
PERFORMER "Shelley Hirsch - Simon Ho"
INDEX 01 00:00:00
FILE "08 Online Dating.wav" WAVE
TRACK 08 AUDIO
TITLE "Online Dating"
PERFORMER "Shelley Hirsch - Simon Ho"
INDEX 01 00:00:00
FILE "09 Where Were You Then.wav" WAVE
TRACK 09 AUDIO
TITLE "Where Were You Then?"
PERFORMER "Shelley Hirsch - Simon Ho"
INDEX 01 00:00:00
FILE "10 Jim Gartenberg.wav" WAVE
TRACK 10 AUDIO
TITLE "Jim Gartenberg"
PERFORMER "Shelley Hirsch - Simon Ho"
INDEX 01 00:00:00
FILE "11 Take Down the Wall.wav" WAVE
TRACK 11 AUDIO
TITLE "Take Down the Wall"
PERFORMER "Shelley Hirsch - Simon Ho"
INDEX 01 00:00:00
FILE "12 Mining the Light.wav" WAVE
TRACK 12 AUDIO
TITLE "Mining the Light"
PERFORMER "Shelley Hirsch - Simon Ho"
INDEX 01 00:00:00
FILE "13 The Nursing Home.wav" WAVE
TRACK 13 AUDIO
TITLE "The Nursing Home"
PERFORMER "Shelley Hirsch - Simon Ho"
INDEX 01 00:00:00
FILE "14 Floundering.wav" WAVE
TRACK 14 AUDIO
TITLE "Floundering"
PERFORMER "Shelley Hirsch - Simon Ho"
INDEX 01 00:00:00
FILE "15 Earl and Me.wav" WAVE
TRACK 15 AUDIO
TITLE "Earl and Me"
PERFORMER "Shelley Hirsch - Simon Ho"
INDEX 01 00:00:00
FILE "16 You Would Have Loved It!.wav" WAVE
TRACK 16 AUDIO
TITLE "You Would Have Loved It!"
PERFORMER "Shelley Hirsch - Simon Ho"
INDEX 01 00:00:00
 
Об альбоме (сборнике)
The charismatic raconteur Shelley Hirsch returns in collaboration with talented Swiss composer Simon Ho to present her greatest extended work to date—an exhilarating collection of songs and stories about online dating, living in California, hitchhiking through Germany, 9/11 and more. Sensitive and creative arrangements perfectly compliment Shelley’s story telling in this delightful and colorful suite by a downtown legend.
 
Состав
Tony Buck: Drums, Percussion
Mich Gerber: Bass
Shelley Hirsch: Vocals
Simon Ho: Sequencer, Piano, Accordion, Organ, Keyboard
David Simons: Drums
Misa Stefanovic: Violin
Tomas Ulrich: Cello
Daniela Bertschinger: Viola
Kathrin Boegli: Cello
Karel Boeschoten: Violin
David Gattiker: Cello
Stephanie Griffth: Viola
Dave Hofstra: Tuba, Bass
Andi Hug: Drums
David Inniger: Cello
Karri Koivukoski: Viola
Sibylla Leuenberger: Viola
Michael Suchorsky: Drums, Percussion
Any questions -> support@pro-jazz.com. По всем вопросам пишите -> support@pro-jazz.com
23:31
174
Нет комментариев. Ваш будет первым!