Вы используете незарегистрированную версию компонента "Вкладки"!

Поиск

(ACT, Modern Creative, Contemporary Jazz) Michael Wollny's [EM] - Wasted & Wanted (with Eva Kruse, Eric Schaefer ) (Wollny)- 2012, 2cd, FLAC (tracks+.cue), lossless

(ACT, Modern Creative, Contemporary Jazz) Michael Wollny's [EM] - Wasted & Wanted (with Eva Kruse, Eric Schaefer ) (Wollny)- 2012, 2cd, FLAC (tracks+.cue), lossless
Треклист:
торрент перезалит 17 -05 -2012
добавлен бонусный диск. рип первого диска изменен
Michael Wollny's [EM] - Wasted & Wanted
Жанр: ACT, Modern Creative, Contemporary Jazz
Год издания: 2012
Издатель (лейбл): ACT
Номер по каталогу: 9515-1
Аудиокодек: FLAC (*.flac)
Тип рипа: tracks+.cue
Битрейт аудио: lossless
Продолжительность: 00:47:20 + 00:22:54
Источник (релизер): hanswurst
Наличие сканов в содержимом раздачи: есть
Треклист:
disk 1
1. Wasted & Wanted
2. Symphony No. V, Mov 1: Trauermarsch
3. Metall
4. Blank
5. Kulintang
6. Cembalo Manifeszt
7. Wasserklavier
8. Ihr Bild
9. Nr. 10
10. Das Modell
11. Dario
12. Whiteout
disk 2
1. Wasted & Wanted
2. Blank
3. Metall
4. The Fearless Vampire Killers
Michael Wollny / piano, spinett
Eva Kruse / bass, glockenspiel
Eric Schaefer / drums, kulintang, melodica
 
disk1
 
Лог создания рипа
Exact Audio Copy V1.0 beta 3 from 29. August 2011
EAC extraction logfile from 29. March 2012, 21:05
Michael Wollny's [em] / Wasted & Wanted
Used drive : PLEXTOR CD-R PREMIUM2 Adapter: 3 ID: 0
Read mode : Secure
Utilize accurate stream : Yes
Defeat audio cache : Yes
Make use of C2 pointers : No
Read offset correction : 30
Overread into Lead-In and Lead-Out : Yes
Fill up missing offset samples with silence : Yes
Delete leading and trailing silent blocks : No
Null samples used in CRC calculations : Yes
Used interface : Native Win32 interface for Win NT & 2000
Gap handling : Appended to previous track
Used output format : User Defined Encoder
Selected bitrate : 128 kBit/s
Quality : High
Add ID3 tag : No
Command line compressor : D:\Programme\EAC10b2\Flac\flac.exe
Additional command line options : -5 -V -T "ARTIST=%artist%" -T "TITLE=%title%" -T "ALBUM=%albumtitle%" -T "DATE=%year%" -T "TRACKNUMBER=%tracknr%" -T "TOTALTRACKS=%numtracks%" -T "GENRE=%genre%" -T "ALBUM ARTIST=%albumartist%" -T "ALBUMARTIST=%albumartist%" -T "COMPOSER=%albumcomposer%" -T "PERFORMER=%albuminterpret%" %haslyrics%-T "LYRICS=%lyrics%"%haslyrics% -T "COMMENT=EAC V1.0 beta 3, Secure Mode, Test & Copy, AccurateRip, FLAC -5" %source%
TOC of the extracted CD
Track | Start | Length | Start sector | End sector
---------------------------------------------------------
1 | 0:00.00 | 3:35.21 | 0 | 16145
2 | 3:35.21 | 3:36.37 | 16146 | 32382
3 | 7:11.58 | 3:51.60 | 32383 | 49767
4 | 11:03.43 | 5:31.22 | 49768 | 74614
5 | 16:34.65 | 3:21.01 | 74615 | 89690
6 | 19:55.66 | 3:13.08 | 89691 | 104173
7 | 23:08.74 | 2:40.14 | 104174 | 116187
8 | 25:49.13 | 4:51.49 | 116188 | 138061
9 | 30:40.62 | 3:30.00 | 138062 | 153811
10 | 34:10.62 | 4:09.73 | 153812 | 172559
11 | 38:20.60 | 3:47.69 | 172560 | 189653
12 | 42:08.54 | 5:11.27 | 189654 | 213005
Track 1
Filename E:\Share\Jazz\U-Z\Michael Wollny's [em] - Wasted & Wanted (2012) [FLAC] {ACT Music & Vision 9515-2}\01 - Wasted & Wanted.wav
Pre-gap length 0:00:02.00
Peak level 99.4 %
Extraction speed 8.4 X
Track quality 100.0 %
Test CRC 569696B0
Copy CRC 569696B0
Accurately ripped (confidence 2) [15376CCB] (AR v2)
Copy OK
Track 2
Filename E:\Share\Jazz\U-Z\Michael Wollny's [em] - Wasted & Wanted (2012) [FLAC] {ACT Music & Vision 9515-2}\02 - Symphony No. V, Mov 1 - Trauermarsch.wav
Peak level 99.0 %
Extraction speed 9.0 X
Track quality 100.0 %
Test CRC EE684389
Copy CRC EE684389
Accurately ripped (confidence 2) [DAB39590] (AR v2)
Copy OK
Track 3
Filename E:\Share\Jazz\U-Z\Michael Wollny's [em] - Wasted & Wanted (2012) [FLAC] {ACT Music & Vision 9515-2}\03 - Metall.wav
Peak level 99.4 %
Extraction speed 9.9 X
Track quality 100.0 %
Test CRC 0654386F
Copy CRC 0654386F
Accurately ripped (confidence 2) [E11A74C7] (AR v2)
Copy OK
Track 4
Filename E:\Share\Jazz\U-Z\Michael Wollny's [em] - Wasted & Wanted (2012) [FLAC] {ACT Music & Vision 9515-2}\04 - Blank.wav
Peak level 99.4 %
Extraction speed 11.0 X
Track quality 100.0 %
Test CRC F6712AE1
Copy CRC F6712AE1
Accurately ripped (confidence 2) [FABFC6DD] (AR v2)
Copy OK
Track 5
Filename E:\Share\Jazz\U-Z\Michael Wollny's [em] - Wasted & Wanted (2012) [FLAC] {ACT Music & Vision 9515-2}\05 - Kulintang.wav
Peak level 99.3 %
Extraction speed 11.5 X
Track quality 100.0 %
Test CRC 9D9899F6
Copy CRC 9D9899F6
Accurately ripped (confidence 2) [C0C8FD11] (AR v2)
Copy OK
Track 6
Filename E:\Share\Jazz\U-Z\Michael Wollny's [em] - Wasted & Wanted (2012) [FLAC] {ACT Music & Vision 9515-2}\06 - Cembalo Manifeszt.wav
Peak level 91.1 %
Extraction speed 11.9 X
Track quality 100.0 %
Test CRC 4D9B14CD
Copy CRC 4D9B14CD
Accurately ripped (confidence 2) [EB16096E] (AR v2)
Copy OK
Track 7
Filename E:\Share\Jazz\U-Z\Michael Wollny's [em] - Wasted & Wanted (2012) [FLAC] {ACT Music & Vision 9515-2}\07 - Wasserklavier.wav
Peak level 79.1 %
Extraction speed 12.2 X
Track quality 100.0 %
Test CRC 48F4BC6E
Copy CRC 48F4BC6E
Accurately ripped (confidence 2) [F9AEAF29] (AR v2)
Copy OK
Track 8
Filename E:\Share\Jazz\U-Z\Michael Wollny's [em] - Wasted & Wanted (2012) [FLAC] {ACT Music & Vision 9515-2}\08 - Ihr Bild.wav
Peak level 99.2 %
Extraction speed 13.2 X
Track quality 100.0 %
Test CRC 9A1A1DC1
Copy CRC 9A1A1DC1
Accurately ripped (confidence 2) [67AE6241] (AR v2)
Copy OK
Track 9
Filename E:\Share\Jazz\U-Z\Michael Wollny's [em] - Wasted & Wanted (2012) [FLAC] {ACT Music & Vision 9515-2}\09 - Nr. 10.wav
Peak level 99.4 %
Extraction speed 13.5 X
Track quality 100.0 %
Test CRC 79832CE7
Copy CRC 79832CE7
Accurately ripped (confidence 2) [7CBE065A] (AR v2)
Copy OK
Track 10
Filename E:\Share\Jazz\U-Z\Michael Wollny's [em] - Wasted & Wanted (2012) [FLAC] {ACT Music & Vision 9515-2}\10 - Das Model.wav
Peak level 99.4 %
Extraction speed 11.9 X
Track quality 99.9 %
Test CRC 6CA30CB9
Copy CRC 6CA30CB9
Accurately ripped (confidence 2) [0B87F6DC] (AR v2)
Copy OK
Track 11
Filename E:\Share\Jazz\U-Z\Michael Wollny's [em] - Wasted & Wanted (2012) [FLAC] {ACT Music & Vision 9515-2}\11 - Dario.wav
Peak level 88.2 %
Extraction speed 14.6 X
Track quality 100.0 %
Test CRC ACEF6E0E
Copy CRC ACEF6E0E
Accurately ripped (confidence 2) [A98B3CAF] (AR v2)
Copy OK
Track 12
Filename E:\Share\Jazz\U-Z\Michael Wollny's [em] - Wasted & Wanted (2012) [FLAC] {ACT Music & Vision 9515-2}\12 - Whiteout.wav
Peak level 98.9 %
Extraction speed 16.0 X
Track quality 100.0 %
Test CRC 2C9F4A6B
Copy CRC 2C9F4A6B
Accurately ripped (confidence 2) [9C692493] (AR v2)
Copy OK
All tracks accurately ripped
No errors occurred
End of status report
---- CUETools DB Plugin V2.1.3
[CTDB TOCID: xCeuemkfxLxhrPDmYIbhG2O_4Bc-] found, Submit result: xCeuemkfxLxhrPDmYIbhG2O_4Bc- has been confirmed
[156724ee] (1/1) Accurately ripped
==== Log checksum 39C79BFA0701A7C6BC0645C6280FF7FFF595B24650FD4C88F2D9116DB48EDFEF ====
 
Содержание индексной карты (.CUE)
REM GENRE Jazz
REM DATE 2012
REM DISCID 930B180C
REM COMMENT "ExactAudioCopy v1.0b3"
PERFORMER "Michael Wollny's [em]"
TITLE "Wasted & Wanted"
FILE "01 - Wasted & Wanted.flac" WAVE
TRACK 01 AUDIO
TITLE "Wasted & Wanted"
PERFORMER "Michael Wollny's [em]"
ISRC DEA891200080
INDEX 01 00:00:00
FILE "02 - Symphony No. V, Mov 1 - Trauermarsch.flac" WAVE
TRACK 02 AUDIO
TITLE "Symphony No. V, Mov 1 - Trauermarsch"
PERFORMER "Michael Wollny's [em]"
ISRC DEA891200081
INDEX 01 00:00:00
FILE "03 - Metall.flac" WAVE
TRACK 03 AUDIO
TITLE "Metall"
PERFORMER "Michael Wollny's [em]"
ISRC DEA891200082
INDEX 01 00:00:00
FILE "04 - Blank.flac" WAVE
TRACK 04 AUDIO
TITLE "Blank"
PERFORMER "Michael Wollny's [em]"
ISRC DEA891200083
INDEX 01 00:00:00
FILE "05 - Kulintang.flac" WAVE
TRACK 05 AUDIO
TITLE "Kulintang"
PERFORMER "Michael Wollny's [em]"
ISRC DEA891200084
INDEX 01 00:00:00
FILE "06 - Cembalo Manifeszt.flac" WAVE
TRACK 06 AUDIO
TITLE "Cembalo Manifeszt"
PERFORMER "Michael Wollny's [em]"
ISRC DEA891200085
INDEX 01 00:00:00
FILE "07 - Wasserklavier.flac" WAVE
TRACK 07 AUDIO
TITLE "Wasserklavier"
PERFORMER "Michael Wollny's [em]"
ISRC DEA891200086
INDEX 01 00:00:00
FILE "08 - Ihr Bild.flac" WAVE
TRACK 08 AUDIO
TITLE "Ihr Bild"
PERFORMER "Michael Wollny's [em]"
ISRC DEA891200087
INDEX 01 00:00:00
FILE "09 - Nr. 10.flac" WAVE
TRACK 09 AUDIO
TITLE "Nr. 10"
PERFORMER "Michael Wollny's [em]"
ISRC DEA891200088
INDEX 01 00:00:00
FILE "10 - Das Model.flac" WAVE
TRACK 10 AUDIO
TITLE "Das Model"
PERFORMER "Michael Wollny's [em]"
ISRC DEA891200089
INDEX 01 00:00:00
FILE "11 - Dario.flac" WAVE
TRACK 11 AUDIO
TITLE "Dario"
PERFORMER "Michael Wollny's [em]"
ISRC DEA891200090
INDEX 01 00:00:00
FILE "12 - Whiteout.flac" WAVE
TRACK 12 AUDIO
TITLE "Whiteout"
PERFORMER "Michael Wollny's [em]"
ISRC DEA891200091
INDEX 01 00:00:00

 
disk2
 
Лог создания рипа
Exact Audio Copy V1.0 beta 3 from 29. August 2011
EAC extraction logfile from 29. March 2012, 21:17
Michael Wollny's [em] / Live at JazzFest Berlin 2011
Used drive : PLEXTOR CD-R PREMIUM2 Adapter: 3 ID: 0
Read mode : Secure
Utilize accurate stream : Yes
Defeat audio cache : Yes
Make use of C2 pointers : No
Read offset correction : 30
Overread into Lead-In and Lead-Out : Yes
Fill up missing offset samples with silence : Yes
Delete leading and trailing silent blocks : No
Null samples used in CRC calculations : Yes
Used interface : Native Win32 interface for Win NT & 2000
Gap handling : Appended to previous track
Used output format : User Defined Encoder
Selected bitrate : 128 kBit/s
Quality : High
Add ID3 tag : No
Command line compressor : D:\Programme\EAC10b2\Flac\flac.exe
Additional command line options : -5 -V -T "ARTIST=%artist%" -T "TITLE=%title%" -T "ALBUM=%albumtitle%" -T "DATE=%year%" -T "TRACKNUMBER=%tracknr%" -T "TOTALTRACKS=%numtracks%" -T "GENRE=%genre%" -T "ALBUM ARTIST=%albumartist%" -T "ALBUMARTIST=%albumartist%" -T "COMPOSER=%albumcomposer%" -T "PERFORMER=%albuminterpret%" %haslyrics%-T "LYRICS=%lyrics%"%haslyrics% -T "COMMENT=EAC V1.0 beta 3, Secure Mode, Test & Copy, AccurateRip, FLAC -5" %source%
TOC of the extracted CD
Track | Start | Length | Start sector | End sector
---------------------------------------------------------
1 | 0:00.15 | 3:37.20 | 15 | 16309
2 | 3:37.35 | 6:23.66 | 16310 | 45100
3 | 10:01.26 | 4:45.53 | 45101 | 66528
4 | 14:47.04 | 8:07.74 | 66529 | 103127
Track 1
Filename E:\Share\Jazz\U-Z\Michael Wollny's [em] - Live at JazzFest Berlin 2011 (2012) [FLAC] {ACT Music & Vision 9515-2, Bonus Disc}\01 - Wasted & Wanted.wav
Pre-gap length 0:00:02.20
Peak level 98.8 %
Extraction speed 8.3 X
Track quality 100.0 %
Test CRC 151C39F5
Copy CRC 151C39F5
Track not present in AccurateRip database
Copy OK
Track 2
Filename E:\Share\Jazz\U-Z\Michael Wollny's [em] - Live at JazzFest Berlin 2011 (2012) [FLAC] {ACT Music & Vision 9515-2, Bonus Disc}\02 - Blank.wav
Peak level 98.8 %
Extraction speed 9.6 X
Track quality 100.0 %
Test CRC 8E1C2C16
Copy CRC 8E1C2C16
Track not present in AccurateRip database
Copy OK
Track 3
Filename E:\Share\Jazz\U-Z\Michael Wollny's [em] - Live at JazzFest Berlin 2011 (2012) [FLAC] {ACT Music & Vision 9515-2, Bonus Disc}\03 - Metall.wav
Peak level 98.8 %
Extraction speed 10.6 X
Track quality 100.0 %
Test CRC 524C9E53
Copy CRC 524C9E53
Track not present in AccurateRip database
Copy OK
Track 4
Filename E:\Share\Jazz\U-Z\Michael Wollny's [em] - Live at JazzFest Berlin 2011 (2012) [FLAC] {ACT Music & Vision 9515-2, Bonus Disc}\04 - The Fearless Vampire Killers.wav
Peak level 98.8 %
Extraction speed 12.3 X
Track quality 100.0 %
Test CRC 20DC0A99
Copy CRC 20DC0A99
Track not present in AccurateRip database
Copy OK
None of the tracks are present in the AccurateRip database
No errors occurred
End of status report
==== Log checksum 6760C0E92615A3B39225059F19183A2541D81A383ACCC10EFD50ECDD0502B0D1 ====
 
Содержание индексной карты (.CUE)
REM GENRE Jazz
REM DATE 2012
REM DISCID 30055F04
REM COMMENT "ExactAudioCopy v1.0b3"
PERFORMER "Michael Wollny's [em]"
TITLE "Live at JazzFest Berlin 2011"
FILE "01 - Wasted & Wanted.flac" WAVE
TRACK 01 AUDIO
TITLE "Wasted & Wanted"
PERFORMER "Michael Wollny's [em]"
ISRC DEA891200093
PREGAP 00:00:15
INDEX 01 00:00:00
FILE "02 - Blank.flac" WAVE
TRACK 02 AUDIO
TITLE "Blank"
PERFORMER "Michael Wollny's [em]"
ISRC DEA891200094
INDEX 01 00:00:00
FILE "03 - Metall.flac" WAVE
TRACK 03 AUDIO
TITLE "Metall"
PERFORMER "Michael Wollny's [em]"
ISRC DEA891200095
INDEX 01 00:00:00
FILE "04 - The Fearless Vampire Killers.flac" WAVE
TRACK 04 AUDIO
TITLE "The Fearless Vampire Killers"
PERFORMER "Michael Wollny's [em]"
ISRC DEA891200096
INDEX 01 00:00:00

Any questions -> support@pro-jazz.com. По всем вопросам пишите -> support@pro-jazz.com
23:31
158
Нет комментариев. Ваш будет первым!