Вы используете незарегистрированную версию компонента "Вкладки"!

Поиск

(Avant-Garde, Modern Creative, Post-Bop, Winter & Winter) [CD] Uri Caine Trio (Drew Gress, Ben Perowsky) - Live at the Village Vanguard - 2004, FLAC (tracks+.cue), lossless

(Avant-Garde, Modern Creative, Post-Bop, Winter & Winter) [CD] Uri Caine Trio (Drew Gress, Ben Perowsky) - Live at the Village Vanguard - 2004, FLAC (tracks+.cue), lossless
Треклист:
Uri Caine Trio / Live at the Village Vanguard
Жанр: Avant-Garde, Modern Creative, Post-Bop
Носитель: CD
Страна-производитель диска: Germany
Год издания: 2004
Издатель (лейбл): Winter & Winter
Номер по каталогу: 910 102-2
Аудиокодек: FLAC (*.flac)
Тип рипа: tracks+.cue
Битрейт аудио: lossless
Продолжительность: 1:16:45
Источник (релизер): я
Наличие сканов в содержимом раздачи: нет
Треклист:
01. Nefertiti (Wayne Shorter) 9:04
02. All the Way (Jimmy Van Heusen) 5:21
03. Stiletto (Uri Caine) 7:38
04. I Thought About You (Jimmy Van Heusen) 8:44
05. Otello (Uri Caine) 6:33
06. Snaggletooth (Uri Caine) 7:43
07. Go Deep (Uri Caine) 9:34
08. Cheek to Cheek (Irving Berlin) 9:11
09. Most Wanted (Uri Caine) 6:35
10. BushWack (Uri Caine) 6:20
Recorded live at the Village Vanguard, New York, May 23rd-May 25th, 2003.
Uri Caine – Piano
Drew Gress – Bass
Ben Perowsky – Drums
 
Лог создания рипа
Exact Audio Copy V1.0 beta 3 from 29. August 2011
EAC extraction logfile from 15. December 2013, 21:28
Uri Caine Trio / Live at the Village Vanguard
Used drive : SlimtypeeNAU508 5 Adapter: 1 ID: 0
Read mode : Secure
Utilize accurate stream : Yes
Defeat audio cache : Yes
Make use of C2 pointers : No
Read offset correction : 6
Overread into Lead-In and Lead-Out : No
Fill up missing offset samples with silence : Yes
Delete leading and trailing silent blocks : No
Null samples used in CRC calculations : Yes
Used interface : Native Win32 interface for Win NT & 2000
Gap handling : Appended to previous track
Used output format : User Defined Encoder
Selected bitrate : 768 kBit/s
Quality : High
Add ID3 tag : No
Command line compressor : C:\Program Files (x86)\Exact Audio Copy\Flac\flac.exe
Additional command line options : -8 -V -T "ARTIST=%artist%" -T "TITLE=%title%" -T "ALBUM=%albumtitle%" -T "DATE=%year%" -T "TRACKNUMBER=%tracknr%" -T "GENRE=%genre%" -T "PERFORMER=%albuminterpret%" -T "COMPOSER=%composer%" %haslyrics%--tag-from-file=LYRICS="%lyricsfile%"%haslyrics% -T "ALBUMARTIST=%albumartist%" -T "DISCNUMBER=%cdnumber%" -T "TOTALDISCS=%totalcds%" -T "TOTALTRACKS=%numtracks%" -T "COMMENT=%comment%" %source% -o %dest%
TOC of the extracted CD
Track | Start | Length | Start sector | End sector
---------------------------------------------------------
1 | 0:00.00 | 9:03.67 | 0 | 40791
2 | 9:03.67 | 5:21.30 | 40792 | 64896
3 | 14:25.22 | 7:38.32 | 64897 | 99278
4 | 22:03.54 | 8:44.36 | 99279 | 138614
5 | 30:48.15 | 6:33.37 | 138615 | 168126
6 | 37:21.52 | 7:43.28 | 168127 | 202879
7 | 45:05.05 | 9:33.61 | 202880 | 245915
8 | 54:38.66 | 9:10.55 | 245916 | 287220
9 | 63:49.46 | 6:34.73 | 287221 | 316843
10 | 70:24.44 | 6:20.26 | 316844 | 345369
Track 1
Filename C:\EAC rips\01 - Nefertiti.wav
Pre-gap length 0:00:02.00
Peak level 96.9 %
Extraction speed 2.7 X
Track quality 100.0 %
Test CRC 15A3CBCD
Copy CRC 15A3CBCD
Accurately ripped (confidence 9) [D3B7B62B] (AR v2)
Copy OK
Track 2
Filename C:\EAC rips\02 - All the Way.wav
Peak level 96.9 %
Extraction speed 2.9 X
Track quality 100.0 %
Test CRC 62A7E427
Copy CRC 62A7E427
Accurately ripped (confidence 9) [2FFD1743] (AR v2)
Copy OK
Track 3
Filename C:\EAC rips\03 - Stiletto.wav
Peak level 96.9 %
Extraction speed 3.4 X
Track quality 100.0 %
Test CRC AF9F9482
Copy CRC AF9F9482
Accurately ripped (confidence 10) [AB9EB368] (AR v2)
Copy OK
Track 4
Filename C:\EAC rips\04 - I Thought About You.wav
Peak level 96.9 %
Extraction speed 3.7 X
Track quality 100.0 %
Test CRC 289F9179
Copy CRC 289F9179
Accurately ripped (confidence 10) [13219D66] (AR v2)
Copy OK
Track 5
Filename C:\EAC rips\05 - Otello.wav
Peak level 96.9 %
Extraction speed 4.0 X
Track quality 100.0 %
Test CRC 917C45A6
Copy CRC 917C45A6
Accurately ripped (confidence 10) [6CA54788] (AR v2)
Copy OK
Track 6
Filename C:\EAC rips\06 - Snaggletooth.wav
Peak level 96.9 %
Extraction speed 4.3 X
Track quality 100.0 %
Test CRC 6C2550E5
Copy CRC 6C2550E5
Accurately ripped (confidence 10) [31C62C17] (AR v2)
Copy OK
Track 7
Filename C:\EAC rips\07 - Go Deep.wav
Peak level 96.9 %
Extraction speed 4.6 X
Track quality 100.0 %
Test CRC BFD2A5C5
Copy CRC BFD2A5C5
Accurately ripped (confidence 10) [1CFF3114] (AR v2)
Copy OK
Track 8
Filename C:\EAC rips\08 - Cheek to Cheek.wav
Peak level 96.9 %
Extraction speed 4.9 X
Track quality 100.0 %
Test CRC 041ECB6C
Copy CRC 041ECB6C
Accurately ripped (confidence 10) [9F0F40DC] (AR v2)
Copy OK
Track 9
Filename C:\EAC rips\09 - Most Wanted.wav
Peak level 96.9 %
Extraction speed 4.9 X
Track quality 100.0 %
Test CRC 3D0AA075
Copy CRC 3D0AA075
Accurately ripped (confidence 10) [F8C7AF19] (AR v2)
Copy OK
Track 10
Filename C:\EAC rips\10 - BushWack.wav
Peak level 96.9 %
Extraction speed 5.1 X
Track quality 100.0 %
Test CRC 1A053CE8
Copy CRC 1A053CE8
Accurately ripped (confidence 10) [3CB9D299] (AR v2)
Copy OK
All tracks accurately ripped
No errors occurred
End of status report
---- CUETools DB Plugin V2.1.4
[CTDB TOCID: Gsved8tF6tpO.Wmkg9aYnMDssL0-] found
Submit result: Gsved8tF6tpO.Wmkg9aYnMDssL0- has been confirmed
Track | CTDB Status
1 | (7/7) Accurately ripped
2 | (7/7) Accurately ripped
3 | (7/7) Accurately ripped
4 | (7/7) Accurately ripped
5 | (7/7) Accurately ripped
6 | (7/7) Accurately ripped
7 | (6/7) Accurately ripped
8 | (6/7) Accurately ripped
9 | (6/7) Accurately ripped
10 | (6/7) Accurately ripped
==== Log checksum 88D5F19C379E77922BA7A4360BED2F64E92AFF7ED925FB09ED00403DCEAABCA6 ====
 
Содержание индексной карты (.CUE)
REM GENRE Jazz
REM DATE 2004
REM DISCID 8311FC0A
REM COMMENT "ExactAudioCopy v1.0b3"
PERFORMER "Uri Caine Trio"
TITLE "Live at the Village Vanguard"
FILE "01 - Nefertiti.wav" WAVE
TRACK 01 AUDIO
TITLE "Nefertiti"
PERFORMER "Uri Caine Trio"
ISRC DEA290400100
INDEX 01 00:00:00
FILE "02 - All the Way.wav" WAVE
TRACK 02 AUDIO
TITLE "All the Way"
PERFORMER "Uri Caine Trio"
ISRC DEA290400200
INDEX 01 00:00:00
FILE "03 - Stiletto.wav" WAVE
TRACK 03 AUDIO
TITLE "Stiletto"
PERFORMER "Uri Caine Trio"
ISRC DEA290400300
INDEX 01 00:00:00
FILE "04 - I Thought About You.wav" WAVE
TRACK 04 AUDIO
TITLE "I Thought About You"
PERFORMER "Uri Caine Trio"
ISRC DEA290400400
INDEX 01 00:00:00
FILE "05 - Otello.wav" WAVE
TRACK 05 AUDIO
TITLE "Otello"
PERFORMER "Uri Caine Trio"
ISRC DEA290400500
INDEX 01 00:00:00
FILE "06 - Snaggletooth.wav" WAVE
TRACK 06 AUDIO
TITLE "Snaggletooth"
PERFORMER "Uri Caine Trio"
ISRC DEA290400600
INDEX 01 00:00:00
FILE "07 - Go Deep.wav" WAVE
TRACK 07 AUDIO
TITLE "Go Deep"
PERFORMER "Uri Caine Trio"
ISRC DEA290400700
INDEX 01 00:00:00
FILE "08 - Cheek to Cheek.wav" WAVE
TRACK 08 AUDIO
TITLE "Cheek to Cheek"
PERFORMER "Uri Caine Trio"
ISRC DEA290400800
INDEX 01 00:00:00
FILE "09 - Most Wanted.wav" WAVE
TRACK 09 AUDIO
TITLE "Most Wanted"
PERFORMER "Uri Caine Trio"
ISRC DEA290400900
INDEX 01 00:00:00
FILE "10 - BushWack.wav" WAVE
TRACK 10 AUDIO
TITLE "BushWack"
PERFORMER "Uri Caine Trio"
ISRC DEA290401000
INDEX 01 00:00:00
По всем вопросам пишите личное сообщение пользователю M0p94ok.
23:01
142
Нет комментариев. Ваш будет первым!