Вы используете незарегистрированную версию компонента "Вкладки"!

Поиск

(Avant-Garde Jazz, Free Improvisation) [CD] Elliott Sharp - Nots - 1992, FLAC (tracks+.cue), lossless

(Avant-Garde Jazz, Free Improvisation) [CD] Elliott Sharp - Nots - 1992, FLAC (tracks+.cue), lossless
Треклист:
♦ Elliott Sharp - Nots ♦
Жанр: Avant-Garde Jazz, Free Improvisation
Носитель: CD
Страна-производитель диска: Russia
Год издания: 1992
Издатель (лейбл):Atonal Records
Номер по каталогу:ACD 3011
Аудиокодек: FLAC (*.flac)
Тип рипа: tracks+.cue
Битрейт аудио: lossless
Продолжительность: 01:03:00
Источник (релизер): Рип с диска.
Наличие сканов в содержимом раздачи: да
Треклист:
01. Happy Chappie Polka [01:41]
02. Tmi [03:10]
03. Obvious [04:28]
04. The Free World [02:37]
05. Escape Clause [03:36]
06. Carbon [03:28]
07. Surdification [00:46]
08. Loisaida [02:08]
09. Transient [05:42]
10. Irreversibility [02:37]
11. Just Like Here [03:12]
12. Filter [04:27]
13. Sample/Hold [05:34]
14. Hm3 [04:01]
15. Sp [00:46]
16. T [02:20]
17. Lod [02:50]
18. Sp(2)12/8 [05:33]
19. WB [01:56]
20. Fsfsf [01:58]
 
Лог создания рипа
Exact Audio Copy V1.0 beta 3 from 29. August 2011
EAC extraction logfile from 27. January 2014, 19:05
Elliott Sharp / Nots
Used drive : ATAPI iHAS124 D Adapter: 1 ID: 0
Read mode : Secure
Utilize accurate stream : Yes
Defeat audio cache : Yes
Make use of C2 pointers : No
Read offset correction : 6
Overread into Lead-In and Lead-Out : No
Fill up missing offset samples with silence : Yes
Delete leading and trailing silent blocks : No
Null samples used in CRC calculations : Yes
Used interface : Native Win32 interface for Win NT & 2000
Gap handling : Appended to previous track
Used output format : User Defined Encoder
Selected bitrate : 128 kBit/s
Quality : High
Add ID3 tag : No
Command line compressor : C:\Program Files (x86)\Exact Audio Copy\Flac\flac.exe
Additional command line options : -V -8 -T "Genre=%genre%" -T "Artist=%artist%" -T "Title=%title%" -T "Album=%albumtitle%" -T "Date=%year%" -T "Tracknumber=%tracknr%" -T "Comment=%comment%" %source%
TOC of the extracted CD
Track | Start | Length | Start sector | End sector
---------------------------------------------------------
1 | 0:00.00 | 1:41.72 | 0 | 7646
2 | 1:41.72 | 3:10.53 | 7647 | 21949
3 | 4:52.50 | 4:28.05 | 21950 | 42054
4 | 9:20.55 | 2:37.50 | 42055 | 53879
5 | 11:58.30 | 3:36.45 | 53880 | 70124
6 | 15:35.00 | 3:28.25 | 70125 | 85749
7 | 19:03.25 | 0:46.70 | 85750 | 89269
8 | 19:50.20 | 2:08.17 | 89270 | 98886
9 | 21:58.37 | 5:42.73 | 98887 | 124609
10 | 27:41.35 | 2:37.10 | 124610 | 136394
11 | 30:18.45 | 3:12.50 | 136395 | 150844
12 | 33:31.20 | 4:27.52 | 150845 | 170921
13 | 37:58.72 | 5:34.20 | 170922 | 195991
14 | 43:33.17 | 4:01.58 | 195992 | 214124
15 | 47:35.00 | 0:46.05 | 214125 | 217579
16 | 48:21.05 | 2:20.10 | 217580 | 228089
17 | 50:41.15 | 2:50.07 | 228090 | 240846
18 | 53:31.22 | 5:33.63 | 240847 | 265884
19 | 59:05.10 | 1:56.40 | 265885 | 274624
20 | 61:01.50 | 1:58.65 | 274625 | 283539
Track 1
Filename D:\1992.Elliott Sharp ‎- Nots\01. Happy Chappie Polka.wav
Pre-gap length 0:00:02.00
Peak level 93.4 %
Extraction speed 4.4 X
Track quality 100.0 %
Test CRC 7ABEC80F
Copy CRC 7ABEC80F
Cannot be verified as accurate (confidence 1) [D37CBD5B], AccurateRip returned [0C27D7F2] (AR v2)
Copy OK
Track 2
Filename D:\1992.Elliott Sharp ‎- Nots\02. Tmi.wav
Pre-gap length 0:00:01.67
Peak level 84.5 %
Extraction speed 5.4 X
Track quality 100.0 %
Test CRC F3CDABFA
Copy CRC F3CDABFA
Cannot be verified as accurate (confidence 1) [305BF3A3], AccurateRip returned [848E02CC] (AR v2)
Copy OK
Track 3
Filename D:\1992.Elliott Sharp ‎- Nots\03. Obvious.wav
Pre-gap length 0:00:02.03
Peak level 98.6 %
Extraction speed 6.3 X
Track quality 100.0 %
Test CRC 4F116EFE
Copy CRC 4F116EFE
Cannot be verified as accurate (confidence 1) [3F8C59F6], AccurateRip returned [FBAA0694] (AR v2)
Copy OK
Track 4
Filename D:\1992.Elliott Sharp ‎- Nots\04. The Free World.wav
Pre-gap length 0:00:02.09
Peak level 75.4 %
Extraction speed 5.3 X
Track quality 99.9 %
Test CRC 8262C8DD
Copy CRC 8262C8DD
Cannot be verified as accurate (confidence 1) [98C28C1E], AccurateRip returned [E0801972] (AR v2)
Copy OK
Track 5
Filename D:\1992.Elliott Sharp ‎- Nots\05. Escape Clause.wav
Pre-gap length 0:00:01.62
Peak level 99.9 %
Extraction speed 7.0 X
Track quality 100.0 %
Test CRC 64C21C18
Copy CRC 64C21C18
Cannot be verified as accurate (confidence 1) [5D454AFE], AccurateRip returned [C4C3AC31] (AR v2)
Copy OK
Track 6
Filename D:\1992.Elliott Sharp ‎- Nots\06. Carbon.wav
Pre-gap length 0:00:01.63
Peak level 99.6 %
Extraction speed 7.3 X
Track quality 100.0 %
Test CRC 9C31DF03
Copy CRC 9C31DF03
Cannot be verified as accurate (confidence 1) [A8AC98BE], AccurateRip returned [FC4AF6D7] (AR v2)
Copy OK
Track 7
Filename D:\1992.Elliott Sharp ‎- Nots\07. Surdification.wav
Pre-gap length 0:00:02.08
Peak level 91.6 %
Extraction speed 4.9 X
Track quality 100.0 %
Test CRC 68207AF5
Copy CRC 68207AF5
Cannot be verified as accurate (confidence 1) [8392E403], AccurateRip returned [FE7AC00F] (AR v2)
Copy OK
Track 8
Filename D:\1992.Elliott Sharp ‎- Nots\08. Loisaida.wav
Pre-gap length 0:00:01.23
Peak level 87.1 %
Extraction speed 7.0 X
Track quality 100.0 %
Test CRC BD01AE63
Copy CRC BD01AE63
Cannot be verified as accurate (confidence 1) [E39CC0C1], AccurateRip returned [B201F802] (AR v2)
Copy OK
Track 9
Filename D:\1992.Elliott Sharp ‎- Nots\09. Transient.wav
Pre-gap length 0:00:02.00
Peak level 93.7 %
Extraction speed 7.8 X
Track quality 99.9 %
Test CRC F81433E3
Copy CRC F81433E3
Cannot be verified as accurate (confidence 1) [05CB6792], AccurateRip returned [3C11475B] (AR v2)
Copy OK
Track 10
Filename D:\1992.Elliott Sharp ‎- Nots\10. Irreversibility.wav
Pre-gap length 0:00:02.25
Peak level 100.0 %
Extraction speed 8.1 X
Track quality 100.0 %
Test CRC 7E55EA9A
Copy CRC 7E55EA9A
Cannot be verified as accurate (confidence 1) [088B66FB], AccurateRip returned [4D2B011C] (AR v2)
Copy OK
Track 11
Filename D:\1992.Elliott Sharp ‎- Nots\11. Just Like Here.wav
Pre-gap length 0:00:01.53
Peak level 82.0 %
Extraction speed 8.7 X
Track quality 100.0 %
Test CRC F61B3A94
Copy CRC F61B3A94
Cannot be verified as accurate (confidence 1) [1FEC5041], AccurateRip returned [72E96BB4] (AR v2)
Copy OK
Track 12
Filename D:\1992.Elliott Sharp ‎- Nots\12. Filter.wav
Pre-gap length 0:00:01.03
Peak level 100.0 %
Extraction speed 9.4 X
Track quality 100.0 %
Test CRC AE2C5CAC
Copy CRC AE2C5CAC
Cannot be verified as accurate (confidence 1) [641E7647], AccurateRip returned [EE155FE3] (AR v2)
Copy OK
Track 13
Filename D:\1992.Elliott Sharp ‎- Nots\13. Sample,Hold.wav
Pre-gap length 0:00:02.07
Peak level 72.2 %
Extraction speed 10.1 X
Track quality 100.0 %
Test CRC E63EC27E
Copy CRC E63EC27E
Cannot be verified as accurate (confidence 1) [505FCCD5], AccurateRip returned [F87497A2] (AR v2)
Copy OK
Track 14
Filename D:\1992.Elliott Sharp ‎- Nots\14. Hm3.wav
Pre-gap length 0:00:01.74
Peak level 84.8 %
Extraction speed 10.1 X
Track quality 100.0 %
Test CRC 4A6E0C8A
Copy CRC 4A6E0C8A
Cannot be verified as accurate (confidence 1) [83341F71], AccurateRip returned [EE046DA3] (AR v2)
Copy OK
Track 15
Filename D:\1992.Elliott Sharp ‎- Nots\15. Sp.wav
Pre-gap length 0:00:01.70
Peak level 91.2 %
Extraction speed 6.6 X
Track quality 100.0 %
Test CRC 3B33F0EA
Copy CRC 3B33F0EA
Cannot be verified as accurate (confidence 1) [575E8C3A], AccurateRip returned [B44622CC] (AR v2)
Copy OK
Track 16
Filename D:\1992.Elliott Sharp ‎- Nots\16. T.wav
Pre-gap length 0:00:01.20
Peak level 98.8 %
Extraction speed 9.5 X
Track quality 100.0 %
Test CRC 71156B89
Copy CRC 71156B89
Cannot be verified as accurate (confidence 1) [0D38DAB2], AccurateRip returned [F658762C] (AR v2)
Copy OK
Track 17
Filename D:\1992.Elliott Sharp ‎- Nots\17. Lod.wav
Pre-gap length 0:00:02.10
Peak level 89.5 %
Extraction speed 10.0 X
Track quality 100.0 %
Test CRC EB965A8D
Copy CRC EB965A8D
Cannot be verified as accurate (confidence 1) [0C1F4A96], AccurateRip returned [0941CEA6] (AR v2)
Copy OK
Track 18
Filename D:\1992.Elliott Sharp ‎- Nots\18. Sp(2)12,8.wav
Pre-gap length 0:00:02.05
Peak level 91.8 %
Extraction speed 8.9 X
Track quality 99.9 %
Test CRC 8E2D2224
Copy CRC 8E2D2224
Cannot be verified as accurate (confidence 1) [4BFFB746], AccurateRip returned [42D25ECB] (AR v2)
Copy OK
Track 19
Filename D:\1992.Elliott Sharp ‎- Nots\19. WB.wav
Pre-gap length 0:00:01.60
Peak level 90.3 %
Extraction speed 6.5 X
Track quality 99.9 %
Test CRC AA274897
Copy CRC AA274897
Cannot be verified as accurate (confidence 1) [AE7157FF], AccurateRip returned [772282F2] (AR v2)
Copy OK
Track 20
Filename D:\1992.Elliott Sharp ‎- Nots\20. Fsfsf.wav
Pre-gap length 0:00:02.12
Peak level 84.1 %
Extraction speed 5.8 X
Track quality 99.9 %
Test CRC 78E6B6B7
Copy CRC 78E6B6B7
Cannot be verified as accurate (confidence 1) [66F5106A], AccurateRip returned [A648B456] (AR v2)
Copy OK
No tracks could be verified as accurate
You may have a different pressing from the one(s) in the database
No errors occurred
End of status report
==== Log checksum F1C19D9B5EDD04423E570152EE8B8C5F5681849775CC1D121F47A07A043D8691 ====
 
Содержание индексной карты (.CUE)
REM GENRE Avantgarde
REM DATE 1992
REM DISCID F30EC414
REM COMMENT "ExactAudioCopy v1.0b3"
PERFORMER "Elliott Sharp"
TITLE "Nots"
FILE "01. Happy Chappie Polka.wav" WAVE
TRACK 01 AUDIO
TITLE "Happy Chappie Polka"
PERFORMER "Elliott Sharp"
INDEX 01 00:00:00
TRACK 02 AUDIO
TITLE "Tmi"
PERFORMER "Elliott Sharp"
INDEX 00 01:40:05
FILE "02. Tmi.wav" WAVE
INDEX 01 00:00:00
TRACK 03 AUDIO
TITLE "Obvious"
PERFORMER "Elliott Sharp"
INDEX 00 03:08:50
FILE "03. Obvious.wav" WAVE
INDEX 01 00:00:00
TRACK 04 AUDIO
TITLE "The Free World"
PERFORMER "Elliott Sharp"
INDEX 00 04:25:71
FILE "04. The Free World.wav" WAVE
INDEX 01 00:00:00
TRACK 05 AUDIO
TITLE "Escape Clause"
PERFORMER "Elliott Sharp"
INDEX 00 02:35:63
FILE "05. Escape Clause.wav" WAVE
INDEX 01 00:00:00
TRACK 06 AUDIO
TITLE "Carbon"
PERFORMER "Elliott Sharp"
INDEX 00 03:34:57
FILE "06. Carbon.wav" WAVE
INDEX 01 00:00:00
TRACK 07 AUDIO
TITLE "Surdification"
PERFORMER "Elliott Sharp"
INDEX 00 03:26:17
FILE "07. Surdification.wav" WAVE
INDEX 01 00:00:00
TRACK 08 AUDIO
TITLE "Loisaida"
PERFORMER "Elliott Sharp"
INDEX 00 00:45:47
FILE "08. Loisaida.wav" WAVE
INDEX 01 00:00:00
TRACK 09 AUDIO
TITLE "Transient"
PERFORMER "Elliott Sharp"
INDEX 00 02:06:17
FILE "09. Transient.wav" WAVE
INDEX 01 00:00:00
TRACK 10 AUDIO
TITLE "Irreversibility"
PERFORMER "Elliott Sharp"
INDEX 00 05:40:48
FILE "10. Irreversibility.wav" WAVE
INDEX 01 00:00:00
TRACK 11 AUDIO
TITLE "Just Like Here"
PERFORMER "Elliott Sharp"
INDEX 00 02:35:32
FILE "11. Just Like Here.wav" WAVE
INDEX 01 00:00:00
TRACK 12 AUDIO
TITLE "Filter"
PERFORMER "Elliott Sharp"
INDEX 00 03:11:47
FILE "12. Filter.wav" WAVE
INDEX 01 00:00:00
TRACK 13 AUDIO
TITLE "Sample/Hold"
PERFORMER "Elliott Sharp"
INDEX 00 04:25:45
FILE "13. Sample,Hold.wav" WAVE
INDEX 01 00:00:00
TRACK 14 AUDIO
TITLE "Hm3"
PERFORMER "Elliott Sharp"
INDEX 00 05:32:21
FILE "14. Hm3.wav" WAVE
INDEX 01 00:00:00
TRACK 15 AUDIO
TITLE "Sp"
PERFORMER "Elliott Sharp"
INDEX 00 03:59:63
FILE "15. Sp.wav" WAVE
INDEX 01 00:00:00
TRACK 16 AUDIO
TITLE "T"
PERFORMER "Elliott Sharp"
INDEX 00 00:44:60
FILE "16. T.wav" WAVE
INDEX 01 00:00:00
TRACK 17 AUDIO
TITLE "Lod"
PERFORMER "Elliott Sharp"
INDEX 00 02:18:00
FILE "17. Lod.wav" WAVE
INDEX 01 00:00:00
TRACK 18 AUDIO
TITLE "Sp(2)12/8"
PERFORMER "Elliott Sharp"
INDEX 00 02:48:02
FILE "18. Sp(2)12,8.wav" WAVE
INDEX 01 00:00:00
TRACK 19 AUDIO
TITLE "WB"
PERFORMER "Elliott Sharp"
INDEX 00 05:32:03
FILE "19. WB.wav" WAVE
INDEX 01 00:00:00
TRACK 20 AUDIO
TITLE "Fsfsf"
PERFORMER "Elliott Sharp"
INDEX 00 01:54:28
FILE "20. Fsfsf.wav" WAVE
INDEX 01 00:00:00
 
Состав
Art Baron Trombone
Martin Bisi Engineer
Olu Dara Cornet
Al Diaz Percussion
Richard Edson Trumpet
Doug Epstein Engineer
Alan Fierstein Engineer
Wayne Horvitz Synthesizer
Rod Hui Engineer
Don Hunerberg Engineer
Scott Jarvis Drums
Phillip Johnston Sax (Soprano)
Mark Kamins Producer
Bill Laswell Bass
David Linton Drums
Mark E. Miller Drums, Percussion, Voices
Charles K. Noyes Percussion
Felipe Orrego Guitar
Robert Previte Drums
David Sacks Trombone
Elliott Sharp ?, Bass, Clarinet (Bass), Guitar, Producer, Sax (Alto), Sax (Soprano), Sax (Tenor), Voices
Chris Vine Guitar
Neal White Percussion
Phillip Wilson Drums
По всем вопросам пишите личное сообщение пользователю M0p94ok.
23:00
154
Нет комментариев. Ваш будет первым!