Вы используете незарегистрированную версию компонента "Вкладки"!

Поиск

(Avant-Garde / Modern Creative) Harris Eisenstadt - The Soul and Gone - 2005, FLAC (image+.cue), lossless

Треклист:
Harris Eisenstadt - The Soul and Gone

Жанр: Avant-Garde / Modern Creative
Год выпуска диска: 2005
Производитель диска: 482 Music 1042; USA
Аудио кодек: FLAC
Тип рипа: image+.cue
Битрейт аудио: lossless
Продолжительность: 1:09:48
Jason Adasiewicz: vibraphone
Jeb Bishop: trombone
Harris Eisenstadt: drums
Jason Mears: alto saxophone, B-flat clarinet
Jeff Parker: electric guitar
Jason Roebke: contrabass
1. The Evidence of Absence
2. Three Breaths
3. Portait of Holden Caufield
4. Posauno y Schlagwerk - Between a Rock
5. Kola #2
6. Seed (for Henryk Gorecki)
7. And a Hard Place
 
EAC Report
Exact Audio Copy V0.99 prebeta 5 from 4. May 2009
EAC extraction logfile from 28. February 2010, 13:42
Harris Eisenstadt / The Soul and Gone
Used drive : hp DVD-RAM GH40L Adapter: 0 ID: 1
Read mode : Secure
Utilize accurate stream : Yes
Defeat audio cache : Yes
Make use of C2 pointers : No
Read offset correction : 667
Overread into Lead-In and Lead-Out : No
Fill up missing offset samples with silence : Yes
Delete leading and trailing silent blocks : No
Null samples used in CRC calculations : Yes
Used interface : Installed external ASPI interface
Used output format : User Defined Encoder
Selected bitrate : 1024 kBit/s
Quality : High
Add ID3 tag : No
Command line compressor : C:\Program Files\Exact Audio Copy\Flac\flac.exe
Additional command line options : -6 -V -T "ARTIST=%a" -T "TITLE=%t" -T "ALBUM=%g" -T "DATE=%y" -T "TRACKNUMBER=%n" -T "GENRE=%m" -T "COMMENT=EAC FLAC -6" %s
TOC of the extracted CD
Track | Start | Length | Start sector | End sector
---------------------------------------------------------
1 | 0:00.00 | 12:31.44 | 0 | 56368
2 | 12:31.44 | 8:49.48 | 56369 | 96091
3 | 21:21.17 | 7:48.41 | 96092 | 131232
4 | 29:09.58 | 15:37.60 | 131233 | 201567
5 | 44:47.43 | 8:12.35 | 201568 | 238502
6 | 53:00.03 | 8:29.47 | 238503 | 276724
7 | 61:29.50 | 8:18.31 | 276725 | 314105
Range status and errors
Selected range
Filename C:\Users\Igor\Music\eac\Harris Eisenstadt - The Soul and Gone.wav
Peak level 100.0 %
Range quality 100.0 %
Test CRC A9AE5298
Copy CRC A9AE5298
Copy OK
No errors occurred
AccurateRip summary
Track 1 not present in database
Track 2 not present in database
Track 3 not present in database
Track 4 not present in database
Track 5 not present in database
Track 6 not present in database
Track 7 not present in database
None of the tracks are present in the AccurateRip database
End of status report

рип собственный
По всем вопросам пишите личное сообщение пользователю M0p94ok.
00:52
222
Нет комментариев. Ваш будет первым!