Поиск

(Free Jazz) Noah Howard (Arthur Doyle, Earl Cross, Leslie Waldron, Norris Jones, Mohammed Ali, Juma) - The Black Ark - 2007 (1969), FLAC (tracks+.cue), lossless

Треклист:
Noah Howard - The Black Ark
Жанр: Free Jazz
Год выпуска диска: 2007
Производитель диска: Bo'Weavil Recordings (Weavil 24CD)
Источник: вот.сиди
Аудио кодек: FLAC
Тип рипа: tracks+.cue
Битрейт аудио: lossless
Продолжительность: 40:54
Трэклист:
1 Domiabra 10:20
2 Ole Negro 8:43
3 Mount Fuji 15:32
4 Queen Anne 5:43
Originally released on Freedom Recordings
Recorded at Bell Sound Studios, New York City, 1969.
Noah Howard - alto
Arthur Doyle - tenor
Earl Cross - trumpet
Leslie Waldron - piano
Norris Jones - bass
Mohammed Ali - drums
Juma - congas
 
Отчёт EAC
Exact Audio Copy V0.99 prebeta 4 from 23. January 2008
EAC extraction logfile from 6. March 2008, 9:52
Noah Howard / Black Ark
Used drive : _NEC DVD_RW ND-3520A Adapter: 1 ID: 0
Read mode : Secure
Utilize accurate stream : Yes
Defeat audio cache : Yes
Make use of C2 pointers : No
Read offset correction : 48
Overread into Lead-In and Lead-Out : No
Fill up missing offset samples with silence : Yes
Delete leading and trailing silent blocks : No
Null samples used in CRC calculations : No
Used interface : Installed external ASPI interface
Gap handling : Not detected, thus appended to previous track
Used output format : Internal WAV Routines
Sample format : 44.100 Hz; 16 Bit; Stereo
TOC of the extracted CD
Track | Start | Length | Start sector | End sector
---------------------------------------------------------
1 | 0:00.00 | 10:36.55 | 0 | 47754
2 | 10:36.55 | 8:51.27 | 47755 | 87606
3 | 19:28.07 | 15:40.74 | 87607 | 158180
4 | 35:09.06 | 5:44.72 | 158181 | 184052
Track 1
Filename C:\Documents and Settings\All Users\Documents\Uploads\what.cd\Noah Howard - Black Ark\01 - Domiabra.wav
Peak level 100.0 %
Track quality 100.0 %
Copy CRC 914EBBC3
Track not present in AccurateRip database
Copy OK
Track 2
Filename C:\Documents and Settings\All Users\Documents\Uploads\what.cd\Noah Howard - Black Ark\02 - Ole Negro.wav
Peak level 100.0 %
Track quality 100.0 %
Copy CRC 27B26F36
Track not present in AccurateRip database
Copy OK
Track 3
Filename C:\Documents and Settings\All Users\Documents\Uploads\what.cd\Noah Howard - Black Ark\03 - Mount Fuji.wav
Peak level 100.0 %
Track quality 100.0 %
Copy CRC 7361D3FA
Track not present in AccurateRip database
Copy OK
Track 4
Filename C:\Documents and Settings\All Users\Documents\Uploads\what.cd\Noah Howard - Black Ark\04 - Queen Anne.wav
Peak level 100.0 %
Track quality 100.0 %
Copy CRC 1AFF6711
Track not present in AccurateRip database
Copy OK
None of the tracks are present in the AccurateRip database
No errors occurred
End of status report
 
Отчёт Audiocheckera
AUDIOCHECKER v2.0 beta (build 457) - by Dester - opdester@freemail.hu
~~~~~~~~~~~~~~~~~~~~~~~~~~~~~~~~~~
-=== DO NOT EDIT THIS FILE! ===-
Path: ...\Noah Howard - 1969 - The Black Ark (log, cue)
1 -=- 01 Domiabra.flac -=- CDDA (100%)
2 -=- 02 Ole Negro.flac -=- CDDA (99%)
3 -=- 03 Mount Fuji.flac -=- CDDA (100%)
4 -=- 04 Queen Anne.flac -=- CDDA (100%)
Summary 99,75% CDDA
118186532
 
cue
REM DISCID 21099604
REM COMMENT "ExactAudioCopy v0.99pb4"
PERFORMER "Noah Howard"
TITLE "The Black Ark"
FILE "01 - Domiabra.wav" WAVE
TRACK 01 AUDIO
TITLE "Domiabra"
PERFORMER "Noah Howard"
INDEX 01 00:00:00
TRACK 02 AUDIO
TITLE "Ole Negro"
PERFORMER "Noah Howard"
INDEX 00 10:34:55
FILE "02 - Ole Negro.wav" WAVE
INDEX 01 00:00:00
TRACK 03 AUDIO
TITLE "Mount Fuji"
PERFORMER "Noah Howard"
INDEX 00 08:49:27
FILE "03 - Mount Fuji.wav" WAVE
INDEX 01 00:00:00
TRACK 04 AUDIO
TITLE "Queen Anne"
PERFORMER "Noah Howard"
INDEX 00 15:38:74
FILE "04 - Queen Anne.wav" WAVE
INDEX 01 00:00:00
По всем вопросам пишите личное сообщение пользователю M0p94ok.
00:52
408
Нет комментариев. Ваш будет первым!