Вы используете незарегистрированную версию компонента "Вкладки"!

Поиск

(Avant-Garde, Modern Composition) Elliott Sharp - Arc 1 - I/S/M (1980-1983) - 1996, FLAC (tracks) lossless

(Avant-Garde, Modern Composition) Elliott Sharp - Arc 1 - I/S/M (1980-1983) - 1996, FLAC (tracks) lossless
Треклист:
Elliott Sharp / Arc 1 - I/S/M (1980-1983)
Жанр: Avant-Garde, Modern Composition
Страна-производитель диска: US
Год издания диска: 1996
Издатель (лейбл): Atavistic
Номер по каталогу: ALP 61 CD
Страна: US
Аудио кодек: FLAC (*.flac)
Тип рипа: tracks
Битрейт аудио: lossless
Продолжительность: 58:59
Источник (релизер): what.cd
Наличие сканов в содержимом раздачи: нет
Треклист:
1 Carbon 3:28
2 Surdification 0:47
3 Transient 5:43
4 Loisaida 2:08
5 Irreversibility 2:37
6 Just Like Here 3:13
7 Filter 4:20
8 HM3 4:02
9 SP 0:47
10 T 2:20
11 SP (2) -12/8 5:34
12 LOD 2:50
13 WB? 1:57
14 FSFSF 2:01
15 Haka 3:53
16 MTL 7:38
17 TMI 3:11
18 Free World 2:29
 
Лог создания рипа
Exact Audio Copy V0.99 prebeta 4 from 23. January 2008
EAC extraction logfile from 10. October 2008, 20:13
Elliott Sharp / Arc 1 - I/S/M 1980-1983
Used drive : Optiarc DVD RW AD-7200A Adapter: 0 ID: 3
Read mode : Secure
Utilize accurate stream : Yes
Defeat audio cache : Yes
Make use of C2 pointers : No
Read offset correction : 48
Overread into Lead-In and Lead-Out : No
Fill up missing offset samples with silence : Yes
Delete leading and trailing silent blocks : No
Null samples used in CRC calculations : Yes
Used interface : Installed external ASPI interface
Gap handling : Appended to previous track
Used output format : User Defined Encoder
Selected bitrate : 640 kBit/s
Quality : High
Add ID3 tag : No
Command line compressor : C:\Program Files\Exact Audio Copy\flac.exe
Additional command line options : • -8 -A tukey(0.25) -A gauss(0.1875) -b 4096 -V -T "artist=%a" -T "title=%t" -T "album=%g" -T "date=%y" -T "tracknumber=%n" -T "genre=%m" %s --sector-align
TOC of the extracted CD
Track | Start | Length | Start sector | End sector
---------------------------------------------------------
1 | 0:00.00 | 3:28.20 | 0 | 15619
2 | 3:28.20 | 0:46.67 | 15620 | 19136
3 | 4:15.12 | 5:42.52 | 19137 | 44838
4 | 9:57.64 | 2:08.33 | 44839 | 54471
5 | 12:06.22 | 2:37.33 | 54472 | 66279
6 | 14:43.55 | 3:12.42 | 66280 | 80721
7 | 17:56.22 | 4:20.03 | 80722 | 100224
8 | 22:16.25 | 4:02.29 | 100225 | 118403
9 | 26:18.54 | 0:46.68 | 118404 | 121921
10 | 27:05.47 | 2:20.35 | 121922 | 132456
11 | 29:26.07 | 5:34.33 | 132457 | 157539
12 | 35:00.40 | 2:50.17 | 157540 | 170306
13 | 37:50.57 | 1:56.52 | 170307 | 179058
14 | 39:47.34 | 2:00.63 | 179059 | 188121
15 | 41:48.22 | 3:52.70 | 188122 | 205591
16 | 45:41.17 | 7:37.40 | 205592 | 239906
17 | 53:18.57 | 3:11.08 | 239907 | 254239
18 | 56:29.65 | 2:29.20 | 254240 | 265434
Track 1
Filename H:\Elliott Sharp - Arc 1 - ISM 1980-1983\01 - Elliott Sharp - Carbon .wav
Pre-gap length 0:00:02.00
Peak level 100.0 %
Track quality 100.0 %
Test CRC 9A422AFF
Copy CRC 9A422AFF
Track not present in AccurateRip database
Copy OK
Track 2
Filename H:\Elliott Sharp - Arc 1 - ISM 1980-1983\02 - Elliott Sharp - Surdification .wav
Peak level 96.6 %
Track quality 100.0 %
Test CRC 4929769D
Copy CRC 4929769D
Track not present in AccurateRip database
Copy OK
Track 3
Filename H:\Elliott Sharp - Arc 1 - ISM 1980-1983\03 - Elliott Sharp - Transient .wav
Peak level 99.7 %
Track quality 99.9 %
Test CRC 77D2F069
Copy CRC 77D2F069
Track not present in AccurateRip database
Copy OK
Track 4
Filename H:\Elliott Sharp - Arc 1 - ISM 1980-1983\04 - Elliott Sharp - Loisaida .wav
Peak level 90.2 %
Track quality 100.0 %
Test CRC D71D3197
Copy CRC D71D3197
Track not present in AccurateRip database
Copy OK
Track 5
Filename H:\Elliott Sharp - Arc 1 - ISM 1980-1983\05 - Elliott Sharp - Irreversibility .wav
Peak level 100.0 %
Track quality 100.0 %
Test CRC BFCA1753
Copy CRC BFCA1753
Track not present in AccurateRip database
Copy OK
Track 6
Filename H:\Elliott Sharp - Arc 1 - ISM 1980-1983\06 - Elliott Sharp - Just Like Here .wav
Peak level 83.3 %
Track quality 100.0 %
Test CRC D4316AD0
Copy CRC D4316AD0
Track not present in AccurateRip database
Copy OK
Track 7
Filename H:\Elliott Sharp - Arc 1 - ISM 1980-1983\07 - Elliott Sharp - Filter .wav
Pre-gap length 0:00:00.04
Peak level 100.0 %
Track quality 100.0 %
Test CRC 2E270A81
Copy CRC 2E270A81
Track not present in AccurateRip database
Copy OK
Track 8
Filename H:\Elliott Sharp - Arc 1 - ISM 1980-1983\08 - Elliott Sharp - HM3 .wav
Peak level 87.0 %
Track quality 99.9 %
Test CRC 34F690F1
Copy CRC 34F690F1
Track not present in AccurateRip database
Copy OK
Track 9
Filename H:\Elliott Sharp - Arc 1 - ISM 1980-1983\09 - Elliott Sharp - SP .wav
Peak level 70.5 %
Track quality 100.0 %
Test CRC 86C8FF95
Copy CRC 86C8FF95
Track not present in AccurateRip database
Copy OK
Track 10
Filename H:\Elliott Sharp - Arc 1 - ISM 1980-1983\10 - Elliott Sharp - T .wav
Peak level 100.0 %
Track quality 99.9 %
Test CRC 9D69FAF5
Copy CRC 9D69FAF5
Track not present in AccurateRip database
Copy OK
Track 11
Filename H:\Elliott Sharp - Arc 1 - ISM 1980-1983\11 - Elliott Sharp - SP (2) - 12,8 .wav
Peak level 100.0 %
Track quality 100.0 %
Test CRC 8AAF5409
Copy CRC 8AAF5409
Track not present in AccurateRip database
Copy OK
Track 12
Filename H:\Elliott Sharp - Arc 1 - ISM 1980-1983\12 - Elliott Sharp - LOD .wav
Peak level 93.5 %
Track quality 100.0 %
Test CRC 59018143
Copy CRC 59018143
Track not present in AccurateRip database
Copy OK
Track 13
Filename H:\Elliott Sharp - Arc 1 - ISM 1980-1983\13 - Elliott Sharp - WB .wav
Peak level 87.1 %
Track quality 100.0 %
Test CRC 22BC44FE
Copy CRC 22BC44FE
Track not present in AccurateRip database
Copy OK
Track 14
Filename H:\Elliott Sharp - Arc 1 - ISM 1980-1983\14 - Elliott Sharp - FSFSF .wav
Pre-gap length 0:00:00.04
Peak level 89.5 %
Track quality 99.9 %
Test CRC 6BBCB9D5
Copy CRC 6BBCB9D5
Track not present in AccurateRip database
Copy OK
Track 15
Filename H:\Elliott Sharp - Arc 1 - ISM 1980-1983\15 - Elliott Sharp - Haka .wav
Peak level 73.5 %
Track quality 100.0 %
Test CRC 6CC7B646
Copy CRC 6CC7B646
Track not present in AccurateRip database
Copy OK
Track 16
Filename H:\Elliott Sharp - Arc 1 - ISM 1980-1983\16 - Elliott Sharp - MTL .wav
Peak level 73.3 %
Track quality 100.0 %
Test CRC C5B1672D
Copy CRC C5B1672D
Track not present in AccurateRip database
Copy OK
Track 17
Filename H:\Elliott Sharp - Arc 1 - ISM 1980-1983\17 - Elliott Sharp - TMI .wav
Peak level 86.1 %
Track quality 100.0 %
Test CRC 6CB15163
Copy CRC 6CB15163
Track not present in AccurateRip database
Copy OK
Track 18
Filename H:\Elliott Sharp - Arc 1 - ISM 1980-1983\18 - Elliott Sharp - The Free World .wav
Peak level 64.7 %
Track quality 100.0 %
Test CRC 168FF21C
Copy CRC 168FF21C
Track not present in AccurateRip database
Copy OK
None of the tracks are present in the AccurateRip database
No errors occurred
End of status report
 
Лог проверки качества
d:\>d:\aucdtect -d/-m0 d:\zzz\*.wav
auCDtect: CD records authenticity detector, version 0.8.2
Copyright (c) 2004 Oleg Berngardt. All rights reserved.
Copyright (c) 2004 Alexander Djourik. All rights reserved.
------------------------------------------------------------
Processing file: [01. Carbon.wav]
------------------------------------------------------------
This track looks like CDDA with probability 100%
------------------------------------------------------------
Processing file: [02. Surdification.wav]
------------------------------------------------------------
This track looks like CDDA with probability 100%
------------------------------------------------------------
Processing file: [03. Transient.wav]
------------------------------------------------------------
This track looks like CDDA with probability 100%
------------------------------------------------------------
Processing file: [04. Loisaida.wav]
------------------------------------------------------------
This track looks like CDDA with probability 100%
------------------------------------------------------------
Processing file: [05. Irreversibility.wav]
------------------------------------------------------------
This track looks like CDDA with probability 100%
------------------------------------------------------------
Processing file: [06. Just Like Here.wav]
------------------------------------------------------------
This track looks like CDDA with probability 100%
------------------------------------------------------------
Processing file: [07. Filter.wav]
------------------------------------------------------------
This track looks like CDDA with probability 100%
------------------------------------------------------------
Processing file: [08. HM3.wav]
------------------------------------------------------------
This track looks like CDDA with probability 100%
------------------------------------------------------------
Processing file: [09. SP.wav]
------------------------------------------------------------
This track looks like CDDA with probability 100%
------------------------------------------------------------
Processing file: [10. T.wav]
------------------------------------------------------------
This track looks like CDDA with probability 100%
------------------------------------------------------------
Processing file: [11. SP (2) - 12_8.wav]
------------------------------------------------------------
This track looks like CDDA with probability 100%
------------------------------------------------------------
Processing file: [12. LOD.wav]
------------------------------------------------------------
This track looks like CDDA with probability 100%
------------------------------------------------------------
Processing file: [13. WB_.wav]
------------------------------------------------------------
This track looks like CDDA with probability 99%
------------------------------------------------------------
Processing file: [14. FSFSF.wav]
------------------------------------------------------------
This track looks like CDDA with probability 100%
------------------------------------------------------------
Processing file: [15. Haka.wav]
------------------------------------------------------------
This track looks like CDDA with probability 100%
------------------------------------------------------------
Processing file: [16. MTL.wav]
------------------------------------------------------------
This track looks like CDDA with probability 100%
------------------------------------------------------------
Processing file: [17. TMI.wav]
------------------------------------------------------------
This track looks like CDDA with probability 100%
------------------------------------------------------------
Processing file: [18. The Free World.wav]
------------------------------------------------------------
This track looks like CDDA with probability 100%
------------------------------------------------------------
Final Conclusion:
------------------------------------------------------------
These tracks looks like CDDA with probability 100%
 
Скриншот спектра частот
Доп. информация:
 
Album Info
Label:
Atavistic
Catalog#:
ALP 61 CD
Format:
CD, Album
Country:
US
Released:
1996
Archival and out-of-print recordings of Elliott Sharp's I/S/M: 1980-1983
The two live tracks HAKA and MTL, were recorded to cassette at CBGB's in March 1982
 
Состав
Bass - Bill Laswell (tracks: 2, 6, 7, 17) , Michael Brown (5) (tracks: 8 to 16)
Cornet - Olu Dara (tracks: 1, 5, 6)
Drums - Bobby Previte (tracks: 15, 16) , David Linton (tracks: 8 to 14) , Philip Wilson (tracks: 17, 18)
Drums, Percussion - M.E. Miller (tracks: 1 to 7)
Drums, Saw - Charles K. Noyes (tracks: 2, 6, 7)
Guitar, Bass, Saxophone, Bass Clarinet, Voice, Producer - E#
Percussion - Al Diaz (tracks: 8 to 16)
Recorded By - Don Hunerberg (tracks: 8 to 14) , Doug Epstein (tracks: 17, 18) , Martin Bisi (tracks: 1 to 7)
Synthesizer [Processing] - Diana Meckley (tracks: 1, 3)
Trombone - Art Baron (tracks: 1, 3, 5, 6)
Any questions -> support@pro-jazz.com. По всем вопросам пишите -> support@pro-jazz.com
06:45
134
Нет комментариев. Ваш будет первым!