Вы используете незарегистрированную версию компонента "Вкладки"!

Поиск

(Avant-Garde, Free Jazz) Air (Henry Threadgill, Fred Hopkins, Steve McCall) - Air Time (1978) - 1996, APE (image+.cue), lossless

(Avant-Garde, Free Jazz) Air (Henry Threadgill, Fred Hopkins, Steve McCall) - Air Time (1978) - 1996, APE (image+.cue), lossless
Треклист:
Air - Air Time (1978)
Жанр: Avant-Garde, Free Jazz
Страна-производитель диска: USA
Год издания диска: 1996
Издатель (лейбл): Nessa
Номер по каталогу: ncd-12
Аудио кодек: APE (*.ape)
Тип рипа: image+.cue
Битрейт аудио: lossless
Продолжительность: 44:41
Наличие сканов в содержимом раздачи: yes
Источник (релизер): nnm (thanks barin99)
На замену теме со статусом "сомнительно".
Треклист:
1. I'll Be Right Here Waiting
2. No. 2
3. G.v.E.
4. Subtraction
5. Keep Right on Playing Through the Mirror Over the Water

Исполнители:
Henry Threadgill - sax (alto), sax (tenor), flute, bass flute, hubkaphone
Fred Hopkins - bass
Steve McCall - percussion

Recorded at Streeterville Studios on November 17-18, 1977.
О Треджилле: здесь
 
Лог EAC
Exact Audio Copy V0.99 prebeta 4 from 23. January 2008
EAC extraction logfile from 3. January 2010, 17:06
Air / Air Time
Used drive : HL-DT-STRW/DVD GCC-4242N Adapter: 1 ID: 0
Read mode : Secure
Utilize accurate stream : Yes
Defeat audio cache : Yes
Make use of C2 pointers : No
Read offset correction : 102
Overread into Lead-In and Lead-Out : No
Fill up missing offset samples with silence : Yes
Delete leading and trailing silent blocks : No
Null samples used in CRC calculations : Yes
Used interface : Native Win32 interface for Win NT & 2000
Used output format : Internal WAV Routines
Sample format : 44.100 Hz; 16 Bit; Stereo
TOC of the extracted CD
Track | Start | Length | Start sector | End sector
---------------------------------------------------------
1 | 0:00.00 | 2:37.30 | 0 | 11804
2 | 2:37.30 | 12:01.65 | 11805 | 65944
3 | 14:39.20 | 7:09.55 | 65945 | 98174
4 | 21:49.00 | 13:35.32 | 98175 | 159331
5 | 35:24.32 | 9:16.73 | 159332 | 201104
Range status and errors
Selected range
Filename C:\_\EAC_Out\Out\Air - Air Time\Air - Air Time.wav
Peak level 100.0 %
Range quality 99.9 %
Copy CRC A815D7F2
Copy OK
No errors occurred
AccurateRip summary
Track 1 accurately ripped (confidence 2) [8E34D807]
Track 2 accurately ripped (confidence 2) [367C4CD9]
Track 3 accurately ripped (confidence 2) [1FD2CEE7]
Track 4 accurately ripped (confidence 2) [8B4DC94F]
Track 5 accurately ripped (confidence 2) [E2F160F6]
All tracks accurately ripped
End of status report
Air:Song || Live || Raid || Open Air Suite || Lore || Mail || Live at Montreal Int. Jazz Fest. (as New Air) || Air Show No. 1 (as New Air)
По всем вопросам пишите личное сообщение пользователю M0p94ok.
06:45
167
Нет комментариев. Ваш будет первым!