Вы используете незарегистрированную версию компонента "Вкладки"!

Поиск

(Avant-Garde / Modern Composition / Between the Lines) Yitzhak Yedid - Reflections Upon Six Images - 2006, FLAC (image+.cue), lossless

(Avant-Garde / Modern Composition / Between the Lines) Yitzhak Yedid - Reflections Upon Six Images - 2006, FLAC (image+.cue), lossless
Треклист:
Yitzhak Yedid - Reflections Upon Six Images
Жанр: Avant-Garde / Modern Composition / Between the Lines
Год выпуска диска: 2006
Производитель диска: Germany (Between The Lines BTLCHR 71215)
Аудио кодек: FLAC
Тип рипа: image+.cue
Битрейт аудио: lossless
Продолжительность: 1:08:25
Yitzhak Yedid piano
Francois Houle clarinet
Galia Hai viola
Ora Boasson Horev double bass
1. First Image
2. Second Image
3. Third Image
4. Fourth Image
5. Fifth Image
6. Sixth Image
Recorded on 21-22 September 2004 in Vienna
 
Notes
The Israeli composer and pianist Yitzhak Yedid has created another highlight in his career as a musician with “Reflections Upon Six Images”, his third album on Between the Lines.
Yitzhak can rightly no longer be just called a discovery of new music; instead, born as the son of Syrian-Jewish immigrants in Jerusalem in 1971, he is one of the established greats in the scene. He studied in Boston under Ran Blake and Paul Bley at the New England Conservatory. Today, Yitzhak lives in the city where he was born. He quickly achieved recognition in Israel, recognition that has spread to other parts of the world. Numerous successful tours and prizes have created a reputation for him as one of the most creative living composers.
He merges classical influences and shapes with the improvisation freshness of jazz and music of the Middle East in a very exciting and surprising way in his compositions on “Reflections Upon Six Images”. A work of art has been created, which stimulates you to listen attentively to the intelligent and captivating melodies with their tremendous dynamism. Film music, which does not need any film …
Fellow musicians, who are among the outstanding artists of the genre, contributed decisively to the project success. Galia Hai studied under Tabea Zimmermann, among others, and has received numerous prizes for her playing on the viola. Ora Boasson Horev is both the first bassist of the “Israel Camerata Orchestra Jerusalem” and also a member of several modern and free jazz bands. The Canadian clarinetist Francois Houle is an established big name in classical music and freely improvised jazz.
 
EAC Report
Exact Audio Copy V0.99 prebeta 4 from 23. January 2008
EAC extraction logfile from 21. May 2009, 17:49
Yitzhak Yedid / Reflections Upon Six Images
Used drive : HL-DT-STDVD-ROM GDR8162B Adapter: 1 ID: 0
Read mode : Secure
Utilize accurate stream : Yes
Defeat audio cache : Yes
Make use of C2 pointers : No
Read offset correction : 102
Overread into Lead-In and Lead-Out : No
Fill up missing offset samples with silence : Yes
Delete leading and trailing silent blocks : No
Null samples used in CRC calculations : Yes
Used interface : Installed external ASPI interface
Used output format : User Defined Encoder
Selected bitrate : 1024 kBit/s
Quality : High
Add ID3 tag : No
Command line compressor : C:\Program Files\Exact Audio Copy\FLAC\FLAC.EXE
Additional command line options : -6 -V -T "ARTIST=%a" -T "TITLE=%t" -T "ALBUM=%g" -T "DATE=%y" -T "TRACKNUMBER=%n" -T "GENRE=%m" -T "COMMENT=%e" %s -o %d
TOC of the extracted CD
Track | Start | Length | Start sector | End sector
---------------------------------------------------------
1 | 0:00.00 | 13:52.19 | 0 | 62418
2 | 13:52.19 | 12:51.66 | 62419 | 120309
3 | 26:44.10 | 10:45.71 | 120310 | 168755
4 | 37:30.06 | 8:18.17 | 168756 | 206122
5 | 45:48.23 | 12:08.44 | 206123 | 260766
6 | 57:56.67 | 10:27.57 | 260767 | 307848
Range status and errors
Selected range
Filename C:\eac\Yitzhak Yedid - Reflections Upon Six Images.wav
Peak level 100.0 %
Range quality 99.9 %
Test CRC 2611627B
Copy CRC 2611627B
Copy OK
No errors occurred
End of status report
Any questions -> support@pro-jazz.com. По всем вопросам пишите -> support@pro-jazz.com
11:13
160
Нет комментариев. Ваш будет первым!