Вы используете незарегистрированную версию компонента "Вкладки"!

Поиск

(Avant-Garde / Modern Composition / Between the Lines) Yitzhak Yedid - Oud Bass Piano Trio - 2008, FLAC (image+.cue), lossless

(Avant-Garde / Modern Composition / Between the Lines) Yitzhak Yedid - Oud Bass Piano Trio - 2008, FLAC (image+.cue), lossless
Треклист:
Yitzhak Yedid - Oud Bass Piano Trio
Жанр: Avant-Garde / Modern Composition / Between the Lines
Год выпуска диска: 2008
Производитель диска: Germany (Between The Lines BTLCHR 71218)
Аудио кодек: FLAC
Тип рипа: image+.cue
Битрейт аудио: lossless
Продолжительность: 1:12:51
Yitzhak Yedid piano
Ora Boasson Horev bass
Mikhail Maroun oud
1. First Movement
2. Second Movement
3. Third Movement
4. Fourth Movement
5. Fifth Movement

 
Notes
Born as the son of Syrian-Jewish immigrants in Jerusalem in 1971, it seemed as if the pianist wanted to pursue a career in the USA after studies there and recordings with Paul Bley, among others. But to the surprise of all, Yitzhak returned to Jerusalem despite the beginning a very promising career in America. “I simply get my most important inspirations here,” he said, and means the feeling of life in a city that is more “between the lines” than any other in this world. He works at the university there, and the people are there, with whom is on the same wavelength in a music sense.
Among others, this includes the bassist Ora Boasson Horev, who plays both in very important classical music ensembles as in jazz ones (e.g., “ihre Frau steht”). Classical European music and traditional Arabic music meet in Jerusalem; this Arabic music is really to be understood as classical music in its own right and not as “world music”. The israelic Arab Mikhail Maroun is one of the best oud musicians in the Middle East by far and also a great expert in this music tradition. But not only the members of this trio are remarkable, but above all the compositions and their performance. “Oud Bass Piano Trio” is a work, which as composed as a suite in five movements. But contrary to purely classical works, the compositions provide the musicians with leeway for improvising. Although they are based on given structures, they challenge the musicians to give free expression to the momentary. As a result, classical composition technique meets Klezmer, Arabic folklore meets avant-garde jazz...
The music reminds you of a film soundtrack, a radio play without words - in one work and with closed eyes, the music opens our imagination to new worlds of experience.
 
EAC Report
Exact Audio Copy V0.99 prebeta 4 from 23. January 2008
EAC extraction logfile from 28. May 2009, 9:30
Yitzhak Yedid / Oud Bass Piano Trio
Used drive : HL-DT-STDVD-ROM GDR8162B Adapter: 1 ID: 0
Read mode : Secure
Utilize accurate stream : Yes
Defeat audio cache : Yes
Make use of C2 pointers : No
Read offset correction : 102
Overread into Lead-In and Lead-Out : No
Fill up missing offset samples with silence : Yes
Delete leading and trailing silent blocks : No
Null samples used in CRC calculations : Yes
Used interface : Installed external ASPI interface
Used output format : User Defined Encoder
Selected bitrate : 1024 kBit/s
Quality : High
Add ID3 tag : No
Command line compressor : C:\Program Files\Exact Audio Copy\FLAC\FLAC.EXE
Additional command line options : -6 -V -T "ARTIST=%a" -T "TITLE=%t" -T "ALBUM=%g" -T "DATE=%y" -T "TRACKNUMBER=%n" -T "GENRE=%m" -T "COMMENT=%e" %s -o %d
TOC of the extracted CD
Track | Start | Length | Start sector | End sector
---------------------------------------------------------
1 | 0:00.00 | 11:36.11 | 0 | 52210
2 | 11:36.11 | 12:38.03 | 52211 | 109063
3 | 24:14.14 | 18:09.00 | 109064 | 190738
4 | 42:23.14 | 17:12.61 | 190739 | 268199
5 | 59:36.00 | 13:14.50 | 268200 | 327799
Range status and errors
Selected range
Filename C:\eac\Yitzhak Yedid - Oud Bass Piano Trio.wav
Peak level 97.7 %
Range quality 100.0 %
Test CRC F51C99AC
Copy CRC F51C99AC
Copy OK
No errors occurred
End of status report
По всем вопросам пишите личное сообщение пользователю M0p94ok.
11:13
174
Нет комментариев. Ваш будет первым!