Поиск

(Avant-Garde, Klezmer Jazz) Masada - Tet [Nine] - 1998, FLAC (tracks+.cue), lossless

(Avant-Garde, Klezmer Jazz) Masada - Tet [Nine] - 1998, FLAC (tracks+.cue), lossless
Треклист:
Masada / Tet [Nine]
Жанр: Avant-Garde, Klezmer Jazz
Страна-производитель диска: Japan
Год издания: 1998
Издатель (лейбл): DIW Records
Номер по каталогу: DIW-933
Аудиокодек: FLAC (*.flac)
Тип рипа: tracks+.cue
Битрейт аудио: lossless
Продолжительность: 1:02:16
Источник (релизер): Max Monteiro
Наличие сканов в содержимом раздачи: да
Треклист:
01. Chayah 9:33
02. Karet 1:56
03. Moshav 6:52
04. Leshem 4:38
05. Kochot 5:17
06. Meholalot 8:49
07. Kedushah 6:20
08. Ner Tamid 4:09
09. Acharei Mot 9:04
10. Jachin 5:37
All compositions by John Zorn.
Recorded at Avatar, NYC on April 21, 1997.
John Zorn – Alto Sax
Dave Douglas – Trumpet
Greg Cohen – Bass
Joey Baron – Drums
 
Лог создания рипа
Exact Audio Copy V1.0 beta 3 from 29. August 2011
EAC extraction logfile from 24. June 2013, 13:53
Masada / Tet
Used drive : SlimtypeeNAU508 5 Adapter: 1 ID: 0
Read mode : Secure
Utilize accurate stream : Yes
Defeat audio cache : Yes
Make use of C2 pointers : No
Read offset correction : 6
Overread into Lead-In and Lead-Out : No
Fill up missing offset samples with silence : Yes
Delete leading and trailing silent blocks : No
Null samples used in CRC calculations : Yes
Used interface : Native Win32 interface for Win NT & 2000
Gap handling : Appended to previous track
Used output format : User Defined Encoder
Selected bitrate : 768 kBit/s
Quality : High
Add ID3 tag : No
Command line compressor : C:\Program Files (x86)\Exact Audio Copy\Flac\flac.exe
Additional command line options : -8 -V -T "ARTIST=%artist%" -T "TITLE=%title%" -T "ALBUM=%albumtitle%" -T "DATE=%year%" -T "TRACKNUMBER=%tracknr%" -T "GENRE=%genre%" -T "PERFORMER=%albuminterpret%" -T "COMPOSER=%composer%" %haslyrics%--tag-from-file=LYRICS="%lyricsfile%"%haslyrics% -T "ALBUMARTIST=%albumartist%" -T "DISCNUMBER=%cdnumber%" -T "TOTALDISCS=%totalcds%" -T "TOTALTRACKS=%numtracks%" -T "COMMENT=%comment%" %source% -o %dest%
TOC of the extracted CD
Track | Start | Length | Start sector | End sector
---------------------------------------------------------
1 | 0:00.00 | 9:33.05 | 0 | 42979
2 | 9:33.05 | 1:55.55 | 42980 | 51659
3 | 11:28.60 | 6:52.17 | 51660 | 82576
4 | 18:21.02 | 4:37.65 | 82577 | 103416
5 | 22:58.67 | 5:17.10 | 103417 | 127201
6 | 28:16.02 | 8:49.35 | 127202 | 166911
7 | 37:05.37 | 6:19.72 | 166912 | 195408
8 | 43:25.34 | 4:08.61 | 195409 | 214069
9 | 47:34.20 | 9:04.27 | 214070 | 254896
10 | 56:38.47 | 5:37.33 | 254897 | 280204
Track 1
Filename C:\EAC rips\01 - Chayah.wav
Pre-gap length 0:00:02.00
Peak level 92.2 %
Extraction speed 2.4 X
Track quality 100.0 %
Test CRC B2D1DCE0
Copy CRC B2D1DCE0
Accurately ripped (confidence 3) [0EC844E3] (AR v2)
Copy OK
Track 2
Filename C:\EAC rips\02 - Karet.wav
Peak level 97.4 %
Extraction speed 2.2 X
Track quality 100.0 %
Test CRC 7D791475
Copy CRC 7D791475
Accurately ripped (confidence 3) [F5DC40A7] (AR v2)
Copy OK
Track 3
Filename C:\EAC rips\03 - Moshav.wav
Peak level 44.6 %
Extraction speed 2.9 X
Track quality 100.0 %
Test CRC 1E6026FE
Copy CRC 1E6026FE
Accurately ripped (confidence 3) [E96D11D1] (AR v2)
Copy OK
Track 4
Filename C:\EAC rips\04 - Leshem.wav
Peak level 97.6 %
Extraction speed 2.5 X
Track quality 99.9 %
Test CRC EDDED3FD
Copy CRC EDDED3FD
Accurately ripped (confidence 3) [CD089CFE] (AR v2)
Copy OK
Track 5
Filename C:\EAC rips\05 - Kochot.wav
Peak level 31.2 %
Extraction speed 3.3 X
Track quality 100.0 %
Test CRC 058F835C
Copy CRC 058F835C
Accurately ripped (confidence 3) [E3E11C7B] (AR v2)
Copy OK
Track 6
Filename C:\EAC rips\06 - Meholalot.wav
Peak level 97.3 %
Extraction speed 3.7 X
Track quality 100.0 %
Test CRC 1CDD1429
Copy CRC 1CDD1429
Accurately ripped (confidence 3) [A0B4CC41] (AR v2)
Copy OK
Track 7
Filename C:\EAC rips\07 - Kedushah.wav
Peak level 57.8 %
Extraction speed 3.8 X
Track quality 100.0 %
Test CRC 395B451A
Copy CRC 395B451A
Accurately ripped (confidence 3) [6F6DA6D3] (AR v2)
Copy OK
Track 8
Filename C:\EAC rips\08 - Ner Tamid.wav
Peak level 36.2 %
Extraction speed 3.8 X
Track quality 100.0 %
Test CRC D962919B
Copy CRC D962919B
Accurately ripped (confidence 3) [95608FBF] (AR v2)
Copy OK
Track 9
Filename C:\EAC rips\09 - Acharei Mot.wav
Peak level 91.5 %
Extraction speed 4.3 X
Track quality 100.0 %
Test CRC 2CD89EA8
Copy CRC 2CD89EA8
Accurately ripped (confidence 3) [2AF39F84] (AR v2)
Copy OK
Track 10
Filename C:\EAC rips\10 - Jachin.wav
Peak level 95.4 %
Extraction speed 4.4 X
Track quality 100.0 %
Test CRC 1135E412
Copy CRC 1135E412
Accurately ripped (confidence 3) [D8C7F689] (AR v2)
Copy OK
All tracks accurately ripped
No errors occurred
End of status report
---- CUETools DB Plugin V2.1.4
[CTDB TOCID: .d1CPoRgEq4vL.SDhUwnkeoO1yQ-] found
Submit result: .d1CPoRgEq4vL.SDhUwnkeoO1yQ- has been confirmed
Track | CTDB Status
1 | (3/4) Accurately ripped
2 | (4/4) Accurately ripped
3 | (4/4) Accurately ripped
4 | (4/4) Accurately ripped
5 | (4/4) Accurately ripped
6 | (4/4) Accurately ripped
7 | (4/4) Accurately ripped
8 | (4/4) Accurately ripped
9 | (4/4) Accurately ripped
10 | (4/4) Accurately ripped
==== Log checksum E85980036B5041BC05311843E4A9E88F0AF3A52BF483C15C0BA10B882B821E21 ====
 
Содержание индексной карты (.CUE)
REM GENRE Jazz
REM DATE 1998
REM DISCID 830E980A
REM COMMENT "ExactAudioCopy v1.0b3"
PERFORMER "Masada"
TITLE "Tet"
FILE "01 - Chayah.wav" WAVE
TRACK 01 AUDIO
TITLE "Chayah"
PERFORMER "Masada"
INDEX 01 00:00:00
FILE "02 - Karet.wav" WAVE
TRACK 02 AUDIO
TITLE "Karet"
PERFORMER "Masada"
INDEX 01 00:00:00
FILE "03 - Moshav.wav" WAVE
TRACK 03 AUDIO
TITLE "Moshav"
PERFORMER "Masada"
INDEX 01 00:00:00
FILE "04 - Leshem.wav" WAVE
TRACK 04 AUDIO
TITLE "Leshem"
PERFORMER "Masada"
INDEX 01 00:00:00
FILE "05 - Kochot.wav" WAVE
TRACK 05 AUDIO
TITLE "Kochot"
PERFORMER "Masada"
INDEX 01 00:00:00
FILE "06 - Meholalot.wav" WAVE
TRACK 06 AUDIO
TITLE "Meholalot"
PERFORMER "Masada"
INDEX 01 00:00:00
FILE "07 - Kedushah.wav" WAVE
TRACK 07 AUDIO
TITLE "Kedushah"
PERFORMER "Masada"
INDEX 01 00:00:00
FILE "08 - Ner Tamid.wav" WAVE
TRACK 08 AUDIO
TITLE "Ner Tamid"
PERFORMER "Masada"
INDEX 01 00:00:00
FILE "09 - Acharei Mot.wav" WAVE
TRACK 09 AUDIO
TITLE "Acharei Mot"
PERFORMER "Masada"
INDEX 01 00:00:00
FILE "10 - Jachin.wav" WAVE
TRACK 10 AUDIO
TITLE "Jachin"
PERFORMER "Masada"
INDEX 01 00:00:00
12:34
323
Нет комментариев. Ваш будет первым!