Поиск

(Avant-Garde, Klezmer Jazz) Masada - Hei [Five] - 1995, FLAC (tracks+.cue), lossless

(Avant-Garde, Klezmer Jazz) Masada - Hei [Five] - 1995, FLAC (tracks+.cue), lossless
Треклист:
Masada / Hei [Five]
Жанр: Avant-Garde, Klezmer Jazz
Страна-производитель диска: Japan
Год издания: 1995
Издатель (лейбл): DIW Records
Номер по каталогу: DIW-899
Аудиокодек: FLAC (*.flac)
Тип рипа: tracks+.cue
Битрейт аудио: lossless
Продолжительность: 57:09
Источник (релизер): Max Monteiro
Наличие сканов в содержимом раздачи: да
Треклист:
1. Paran 6:37
2. Halisah 6:22
3. Voreh 10:16
4. Beeroth 5:33
5. Hobah 6:08
6. Neshamah 9:00
7. Lakum 8:54
8. Makedah 7:13
9. Hafla’ah 10:40
All compositions by John Zorn.
Recorded at Power Station, NYC on July 16 & 17, 1995.
John Zorn – Alto Sax
Dave Douglas – Trumpet
Greg Cohen – Bass
Joey Baron – Drums
 
Лог создания рипа
Exact Audio Copy V1.0 beta 3 from 29. August 2011
EAC extraction logfile from 12. June 2013, 19:57
Masada / Hei
Used drive : SlimtypeeNAU508 5 Adapter: 1 ID: 0
Read mode : Secure
Utilize accurate stream : Yes
Defeat audio cache : Yes
Make use of C2 pointers : No
Read offset correction : 6
Overread into Lead-In and Lead-Out : No
Fill up missing offset samples with silence : Yes
Delete leading and trailing silent blocks : No
Null samples used in CRC calculations : Yes
Used interface : Native Win32 interface for Win NT & 2000
Gap handling : Appended to previous track
Used output format : User Defined Encoder
Selected bitrate : 768 kBit/s
Quality : High
Add ID3 tag : No
Command line compressor : C:\Program Files (x86)\Exact Audio Copy\Flac\flac.exe
Additional command line options : -8 -V -T "ARTIST=%artist%" -T "TITLE=%title%" -T "ALBUM=%albumtitle%" -T "DATE=%year%" -T "TRACKNUMBER=%tracknr%" -T "GENRE=%genre%" -T "PERFORMER=%albuminterpret%" -T "COMPOSER=%composer%" %haslyrics%--tag-from-file=LYRICS="%lyricsfile%"%haslyrics% -T "ALBUMARTIST=%albumartist%" -T "DISCNUMBER=%cdnumber%" -T "TOTALDISCS=%totalcds%" -T "TOTALTRACKS=%numtracks%" -T "COMMENT=%comment%" %source% -o %dest%
TOC of the extracted CD
Track | Start | Length | Start sector | End sector
---------------------------------------------------------
1 | 0:00.00 | 5:12.05 | 0 | 23404
2 | 5:12.05 | 6:27.20 | 23405 | 52449
3 | 11:39.25 | 6:50.15 | 52450 | 83214
4 | 18:29.40 | 4:12.55 | 83215 | 102169
5 | 22:42.20 | 11:38.35 | 102170 | 154554
6 | 34:20.55 | 6:05.47 | 154555 | 181976
7 | 40:26.27 | 3:11.00 | 181977 | 196301
8 | 43:37.27 | 8:35.65 | 196302 | 234991
9 | 52:13.17 | 4:55.43 | 234992 | 257159
Track 1
Filename C:\EAC rips\01 - Paran.wav
Pre-gap length 0:00:02.00
Peak level 60.4 %
Extraction speed 1.9 X
Track quality 99.9 %
Test CRC FCF21AB4
Copy CRC FCF21AB4
Accurately ripped (confidence 3) [EA034733] (AR v2)
Copy OK
Track 2
Filename C:\EAC rips\02 - Halisah.wav
Peak level 98.8 %
Extraction speed 2.6 X
Track quality 100.0 %
Test CRC 43ABA4CB
Copy CRC 43ABA4CB
Accurately ripped (confidence 3) [EAF4748D] (AR v2)
Copy OK
Track 3
Filename C:\EAC rips\03 - Yoreh.wav
Peak level 39.4 %
Extraction speed 2.9 X
Track quality 100.0 %
Test CRC F47C1E0B
Copy CRC F47C1E0B
Accurately ripped (confidence 2) [50AC219D] (AR v2)
Copy OK
Track 4
Filename C:\EAC rips\04 - Beeroth.wav
Peak level 98.8 %
Extraction speed 3.0 X
Track quality 100.0 %
Test CRC 346ED3E9
Copy CRC 346ED3E9
Accurately ripped (confidence 3) [BD56881A] (AR v2)
Copy OK
Track 5
Filename C:\EAC rips\05 - Hobah.wav
Peak level 98.8 %
Extraction speed 3.7 X
Track quality 100.0 %
Test CRC 2CFFAF06
Copy CRC 2CFFAF06
Accurately ripped (confidence 3) [33214461] (AR v2)
Copy OK
Track 6
Filename C:\EAC rips\06 - Neshamah.wav
Peak level 35.3 %
Extraction speed 3.8 X
Track quality 100.0 %
Test CRC 9F3A3E8F
Copy CRC 9F3A3E8F
Accurately ripped (confidence 3) [0D88F8DB] (AR v2)
Copy OK
Track 7
Filename C:\EAC rips\07 - Lakum.wav
Peak level 88.2 %
Extraction speed 3.7 X
Track quality 100.0 %
Test CRC 37F885B1
Copy CRC 37F885B1
Accurately ripped (confidence 3) [6892D527] (AR v2)
Copy OK
Track 8
Filename C:\EAC rips\08 - Makedah.wav
Peak level 71.9 %
Extraction speed 4.3 X
Track quality 100.0 %
Test CRC 936CFD38
Copy CRC 936CFD38
Accurately ripped (confidence 3) [13CDA0F1] (AR v2)
Copy OK
Track 9
Filename C:\EAC rips\09 - Hafla'ah.wav
Peak level 98.9 %
Extraction speed 4.3 X
Track quality 100.0 %
Test CRC 6E11AD44
Copy CRC 6E11AD44
Accurately ripped (confidence 3) [48B182AD] (AR v2)
Copy OK
All tracks accurately ripped
No errors occurred
End of status report
---- CUETools DB Plugin V2.1.4
[CTDB TOCID: Zwb1IhY8Hsc1MYNSK2VgUFUtMOo-] found
Submit result: La demande a été abandonnée : La demande a été annulée.
Track | CTDB Status
1 | (7/7) Accurately ripped
2 | (7/7) Accurately ripped
3 | (7/7) Accurately ripped
4 | (7/7) Accurately ripped
5 | (7/7) Accurately ripped
6 | (7/7) Accurately ripped
7 | (7/7) Accurately ripped
8 | (7/7) Accurately ripped
9 | (7/7) Accurately ripped
==== Log checksum 7F32F0BB5535B8CF0E64A960C3B8B15A788A7C2696E085913126777B5783E08C ====
 
Содержание индексной карты (.CUE)
REM GENRE Jazz
REM DATE 1995
REM DISCID 5C0D6409
REM COMMENT "ExactAudioCopy v1.0b3"
PERFORMER "Masada"
TITLE "Hei"
FILE "01 - Paran.wav" WAVE
TRACK 01 AUDIO
TITLE "Paran"
PERFORMER "Masada"
INDEX 01 00:00:00
FILE "02 - Halisah.wav" WAVE
TRACK 02 AUDIO
TITLE "Halisah"
PERFORMER "Masada"
INDEX 01 00:00:00
FILE "03 - Yoreh.wav" WAVE
TRACK 03 AUDIO
TITLE "Yoreh"
PERFORMER "Masada"
INDEX 01 00:00:00
FILE "04 - Beeroth.wav" WAVE
TRACK 04 AUDIO
TITLE "Beeroth"
PERFORMER "Masada"
INDEX 01 00:00:00
FILE "05 - Hobah.wav" WAVE
TRACK 05 AUDIO
TITLE "Hobah"
PERFORMER "Masada"
INDEX 01 00:00:00
FILE "06 - Neshamah.wav" WAVE
TRACK 06 AUDIO
TITLE "Neshamah"
PERFORMER "Masada"
INDEX 01 00:00:00
FILE "07 - Lakum.wav" WAVE
TRACK 07 AUDIO
TITLE "Lakum"
PERFORMER "Masada"
INDEX 01 00:00:00
FILE "08 - Makedah.wav" WAVE
TRACK 08 AUDIO
TITLE "Makedah"
PERFORMER "Masada"
INDEX 01 00:00:00
FILE "09 - Hafla'ah.wav" WAVE
TRACK 09 AUDIO
TITLE "Hafla'ah"
PERFORMER "Masada"
INDEX 01 00:00:00
12:35
361
Нет комментариев. Ваш будет первым!