Вы используете незарегистрированную версию компонента "Вкладки"!

Поиск

(Avant-Garde) Kahil El'Zabar's Ritual Trio - Jitterbug Junction - 1997, FLAC (tracks+.cue) lossless

Треклист:
Kahil El'Zabar's Ritual Trio / Jitterbug Junction
Жанр: Avant-Garde
Год издания диска: 1997
Издатель (лейбл): CIMP
Аудио кодек: FLAC (*.flac)
Тип рипа: tracks+.cue
Битрейт аудио: lossless
Продолжительность: 61:01
Источник (релизер): собственный рип
Наличие сканов в содержимом раздачи: да
Треклист:
1 From Whence It Came ElZabar 9:37
2 Jitterbug Junction ElZabar 6:38
3 One for John Brimfield 10:00
4 The Sweet Nectar of Cacophony ElZabar 16:07
5 Ase'E ElZabar 5:49
6 This Little Light of Mine C.O.G.I.C. Praise, Dorsey
 
Лог создания рипа
Exact Audio Copy V0.99 prebeta 5 from 4. May 2009
EAC extraction logfile from 3. December 2010, 8:34
Kahil El'Zabar's Ritual Trio / Jitterbug Junction
Used drive : HL-DT-STDVDRAM GH22NS50 Adapter: 2 ID: 0
Read mode : Secure
Utilize accurate stream : Yes
Defeat audio cache : Yes
Make use of C2 pointers : No
Read offset correction : 667
Overread into Lead-In and Lead-Out : No
Fill up missing offset samples with silence : Yes
Delete leading and trailing silent blocks : No
Null samples used in CRC calculations : Yes
Used interface : Native Win32 interface for Win NT & 2000
Gap handling : Appended to previous track
Used output format : User Defined Encoder
Selected bitrate : 768 kBit/s
Quality : High
Add ID3 tag : No
Command line compressor : C:\Program Files\Exact Audio Copy\FLAC\FLAC.EXE
Additional command line options : -8 -V -T "ARTIST=%a" -T "TITLE=%t" -T "ALBUM=%g" -T "DATE=%y" -T "TRACKNUMBER=%n" -T "GENRE=%m" -T "COMMENT=EAC FLAC -8" %s
TOC of the extracted CD
Track | Start | Length | Start sector | End sector
---------------------------------------------------------
1 | 0:01.00 | 9:37.29 | 75 | 43378
2 | 9:38.29 | 6:38.05 | 43379 | 73233
3 | 16:16.34 | 10:00.27 | 73234 | 118260
4 | 26:16.61 | 16:07.36 | 118261 | 190821
5 | 42:24.22 | 5:49.06 | 190822 | 217002
6 | 48:13.28 | 12:46.24 | 217003 | 274476
Track 1
Filename C:\Users\User\Music\01. Kahil El'Zabar's Ritual Trio – From Whence It Came.wav
Pre-gap length 0:00:03.00
Peak level 94.9 %
Track quality 100.0 %
Test CRC 1B16BFBF
Copy CRC 1B16BFBF
Accurately ripped (confidence 1) [59D6EB4E]
Copy OK
Track 2
Filename C:\Users\User\Music\02. Kahil El'Zabar's Ritual Trio – Jitterbug Junction.wav
Pre-gap length 0:00:01.60
Peak level 97.8 %
Track quality 100.0 %
Test CRC FA1DE661
Copy CRC FA1DE661
Accurately ripped (confidence 1) [636B9DD6]
Copy OK
Track 3
Filename C:\Users\User\Music\03. Kahil El'Zabar's Ritual Trio – One for John.wav
Pre-gap length 0:00:01.60
Peak level 44.7 %
Track quality 99.9 %
Test CRC 13171E45
Copy CRC 13171E45
Accurately ripped (confidence 1) [8748FEC0]
Copy OK
Track 4
Filename C:\Users\User\Music\04. Kahil El'Zabar's Ritual Trio – The Sweet Nectar of Cacophony.wav
Pre-gap length 0:00:01.60
Peak level 100.0 %
Track quality 100.0 %
Test CRC D57F026A
Copy CRC D57F026A
Accurately ripped (confidence 1) [2C52E1BA]
Copy OK
Track 5
Filename C:\Users\User\Music\05. Kahil El'Zabar's Ritual Trio – Ash'E.wav
Pre-gap length 0:00:01.60
Peak level 87.8 %
Track quality 100.0 %
Test CRC 8BD14B78
Copy CRC 8BD14B78
Accurately ripped (confidence 1) [B72584BC]
Copy OK
Track 6
Filename C:\Users\User\Music\06. Kahil El'Zabar's Ritual Trio – This Little Light of Mine.wav
Pre-gap length 0:00:01.60
Peak level 94.3 %
Track quality 100.0 %
Test CRC 0418F33A
Copy CRC 0418F33A
Accurately ripped (confidence 1) [72FFC54D]
Copy OK
All tracks accurately ripped
No errors occurred
End of status report
 
Содержание индексной карты (.CUE)
REM GENRE Jazz
REM DATE 1997
REM DISCID 660E4A06
REM COMMENT "ExactAudioCopy v0.99pb5"
PERFORMER "Kahil El'Zabar's Ritual Trio"
TITLE "Jitterbug Junction"
FILE "01. Kahil El'Zabar's Ritual Trio – From Whence It Came.flac" WAVE
TRACK 01 AUDIO
TITLE "From Whence It Came"
PERFORMER "Kahil El'Zabar's Ritual Trio"
FLAGS DCP
PREGAP 00:01:00
INDEX 01 00:00:00
TRACK 02 AUDIO
TITLE "Jitterbug Junction"
PERFORMER "Kahil El'Zabar's Ritual Trio"
FLAGS DCP
INDEX 00 09:35:44
FILE "02. Kahil El'Zabar's Ritual Trio – Jitterbug Junction.flac" WAVE
INDEX 01 00:00:00
TRACK 03 AUDIO
TITLE "One for John"
PERFORMER "Kahil El'Zabar's Ritual Trio"
FLAGS DCP
INDEX 00 06:36:20
FILE "03. Kahil El'Zabar's Ritual Trio – One for John.flac" WAVE
INDEX 01 00:00:00
TRACK 04 AUDIO
TITLE "The Sweet Nectar of Cacophony"
PERFORMER "Kahil El'Zabar's Ritual Trio"
FLAGS DCP
INDEX 00 09:58:42
FILE "04. Kahil El'Zabar's Ritual Trio – The Sweet Nectar of Cacophony.flac" WAVE
INDEX 01 00:00:00
TRACK 05 AUDIO
TITLE "Ash'E"
PERFORMER "Kahil El'Zabar's Ritual Trio"
FLAGS DCP
INDEX 00 16:05:51
FILE "05. Kahil El'Zabar's Ritual Trio – Ash'E.flac" WAVE
INDEX 01 00:00:00
TRACK 06 AUDIO
TITLE "This Little Light of Mine"
PERFORMER "Kahil El'Zabar's Ritual Trio"
FLAGS DCP
INDEX 00 05:47:21
FILE "06. Kahil El'Zabar's Ritual Trio – This Little Light of Mine.flac" WAVE
INDEX 01 00:00:00
 
Состав
Ari Brown Sax (Soprano), Sax (Tenor)
Kahil El'Zabar Drums, Liner Notes, Percussion, Piano (Thumb), Vocals
Malachi Favors Arranger, Bass
По всем вопросам пишите личное сообщение пользователю M0p94ok.
06:01
170
Нет комментариев. Ваш будет первым!