Вы используете незарегистрированную версию компонента "Вкладки"!

Поиск

(Avant-Garde) Ariel Shibolet - Live at the total music meeting - 2010, FLAC (image+.cue) lossless

Треклист:
Ariel Shibolet / Live at the total music meeting
Жанр: Avant-Garde
Год издания диска: 2010
Издатель (лейбл): Kadima Collective
Страна: Israel
Аудио кодек: FLAC (*.flac)
Тип рипа: image+.cue
Битрейт аудио: lossless
Продолжительность: 37:04
Источник (релизер): собственный рип
Наличие сканов в содержимом раздачи: да
Треклист:
1. 1. 12:23
2. 2. 8:27
3. 3. 9:07
4. 4. 7:04
 
Лог создания рипа
Exact Audio Copy V0.99 prebeta 5 from 4. May 2009
EAC extraction logfile from 1. December 2010, 12:46
Ariel Shibolet / Live at the total music meeting
Used drive : HL-DT-STDVDRAM GH22NS50 Adapter: 2 ID: 0
Read mode : Secure
Utilize accurate stream : Yes
Defeat audio cache : Yes
Make use of C2 pointers : No
Read offset correction : 667
Overread into Lead-In and Lead-Out : No
Fill up missing offset samples with silence : Yes
Delete leading and trailing silent blocks : No
Null samples used in CRC calculations : No
Used interface : Native Win32 interface for Win NT & 2000
Used output format : User Defined Encoder
Selected bitrate : 768 kBit/s
Quality : High
Add ID3 tag : No
Command line compressor : C:\Program Files\Exact Audio Copy\FLAC\FLAC.EXE
Additional command line options : -8 -V %s
TOC of the extracted CD
Track | Start | Length | Start sector | End sector
---------------------------------------------------------
1 | 0:00.00 | 12:23.05 | 0 | 55729
2 | 12:23.05 | 8:27.43 | 55730 | 93797
3 | 20:50.48 | 9:07.26 | 93798 | 134848
4 | 29:57.74 | 7:04.33 | 134849 | 166681
Range status and errors
Selected range
Filename C:\Users\User\Music\Ariel Shibolet - Live at the total music meeting.wav
Peak level 100.0 %
Range quality 99.9 %
Copy CRC 83DF5DD7
Copy OK
No errors occurred
End of status report
 
Содержание индексной карты (.CUE)
REM DISCID 3608AE04
REM COMMENT "ExactAudioCopy v0.99pb5"
PERFORMER "Ariel Shibolet"
TITLE "Live at the total music meeting"
FILE "Ariel Shibolet - Live at the total music meeting.flac" WAVE
TRACK 01 AUDIO
TITLE "Track01"
PERFORMER "Ariel Shibolet"
INDEX 01 00:00:00
TRACK 02 AUDIO
TITLE "Track02"
PERFORMER "Ariel Shibolet"
INDEX 01 12:23:05
TRACK 03 AUDIO
TITLE "Track03"
PERFORMER "Ariel Shibolet"
INDEX 01 20:50:48
TRACK 04 AUDIO
TITLE "Track04"
PERFORMER "Ariel Shibolet"
INDEX 01 29:57:74
По всем вопросам пишите личное сообщение пользователю M0p94ok.
06:00
166
Нет комментариев. Ваш будет первым!