Вы используете незарегистрированную версию компонента "Вкладки"!

Поиск

(Avant-garde) John Zorn - John Zorn's Cobra: Live At The Knitting Factory - 1995, FLAC (tracks+.cue), lossless

Треклист:
John Zorn / John Zorn's Cobra: Live At The Knitting Factory
Жанр: Avant-garde
Страна-производитель диска: USA
Год издания: 1995
Издатель (лейбл): Knitting Factory Works
Номер по каталогу: KFW 124
Страна: USA
Аудиокодек: FLAC (*.flac)
Тип рипа: tracks+.cue
Битрейт аудио: lossless
Продолжительность: 1:07:37
Источник: waffles.fm
Наличие сканов в содержимом раздачи: нет
Треклист:
01. Hemachatus Hemachatus [2:15]
02. Naja Naja Atra [8:43]
03. Many-Banded Krait [11:02]
04. Taipan [1:31]
05. D. Polylepis [3:24]
06. Lampropeltis Doliata Syspila [2:19]
07. Boomslang [11:11]
08. Maticora Intenstinalis [6:23]
09. Acanthopis Antareticus [4:04]
10. Hydrophiidae [5:45]
11. Ngu Sam Liem [0:55]
12. Ophiophagus Hannah [1:29]
13. Boulengerina [5:33]
14. Laticanda Laticanda [3:03]
 
Лог создания рипа
Exact Audio Copy V0.99 prebeta 4 from 23. January 2008
EAC extraction logfile from 3. May 2009, 21:40
John Zorn / John Zorn's Cobra - Live at The Knitting Factory
Used drive : HL-DT-STDVDRAM GSA-4163B Adapter: 1 ID: 0
Read mode : Secure
Utilize accurate stream : Yes
Defeat audio cache : Yes
Make use of C2 pointers : No
Read offset correction : 667
Overread into Lead-In and Lead-Out : No
Fill up missing offset samples with silence : Yes
Delete leading and trailing silent blocks : No
Null samples used in CRC calculations : Yes
Used interface : Installed external ASPI interface
Gap handling : Appended to previous track
Used output format : User Defined Encoder
Selected bitrate : 768 kBit/s
Quality : High
Add ID3 tag : No
Command line compressor : C:\Program Files\Exact Audio Copy\FLAC\FLAC.EXE
Additional command line options : -V -8 -T "artist=%a" -T "title=%t" -T "album=%g" -T "date=%y" -T "tracknumber=%n" -T "genre=%m" %s
TOC of the extracted CD
Track | Start | Length | Start sector | End sector
---------------------------------------------------------
1 | 0:00.42 | 2:14.40 | 42 | 10131
2 | 2:15.07 | 8:43.33 | 10132 | 49389
3 | 10:58.40 | 11:02.02 | 49390 | 99041
4 | 22:00.42 | 1:31.30 | 99042 | 105896
5 | 23:31.72 | 3:23.63 | 105897 | 121184
6 | 26:55.60 | 2:19.00 | 121185 | 131609
7 | 29:14.60 | 11:11.00 | 131610 | 181934
8 | 40:25.60 | 6:23.07 | 181935 | 210666
9 | 46:48.67 | 4:03.40 | 210667 | 228931
10 | 50:52.32 | 5:45.35 | 228932 | 254841
11 | 56:37.67 | 0:54.68 | 254842 | 258959
12 | 57:32.60 | 1:28.47 | 258960 | 265606
13 | 59:01.32 | 5:32.70 | 265607 | 290576
14 | 64:34.27 | 3:02.58 | 290577 | 304284
Track 1
Filename C:\EAC-rips\John Zorn - John Zorn's Cobra - Live at The Knitting Factory - 01 - Hemachatus Haemachatus.wav
Pre-gap length 0:00:02.56
Peak level 99.8 %
Track quality 100.0 %
Test CRC 9662BE32
Copy CRC 9662BE32
Accurately ripped (confidence 2) [4A132309]
Copy OK
Track 2
Filename C:\EAC-rips\John Zorn - John Zorn's Cobra - Live at The Knitting Factory - 02 - Naja Naja Atra.wav
Pre-gap length 0:00:03.65
Peak level 100.0 %
Track quality 100.0 %
Test CRC 9844B33E
Copy CRC 9844B33E
Accurately ripped (confidence 2) [6EA65FD3]
Copy OK
Track 3
Filename C:\EAC-rips\John Zorn - John Zorn's Cobra - Live at The Knitting Factory - 03 - Many-banded Krait.wav
Pre-gap length 0:00:03.62
Peak level 81.7 %
Track quality 100.0 %
Test CRC 6D055E46
Copy CRC 6D055E46
Accurately ripped (confidence 2) [6407F384]
Copy OK
Track 4
Filename C:\EAC-rips\John Zorn - John Zorn's Cobra - Live at The Knitting Factory - 04 - Taipan.wav
Pre-gap length 0:00:03.65
Peak level 100.0 %
Track quality 100.0 %
Test CRC F73F0E46
Copy CRC F73F0E46
Accurately ripped (confidence 2) [C0CCC997]
Copy OK
Track 5
Filename C:\EAC-rips\John Zorn - John Zorn's Cobra - Live at The Knitting Factory - 05 - D. Poplyepsis.wav
Pre-gap length 0:00:01.65
Peak level 100.0 %
Track quality 100.0 %
Test CRC EA7E4B3E
Copy CRC EA7E4B3E
Accurately ripped (confidence 2) [866B78D2]
Copy OK
Track 6
Filename C:\EAC-rips\John Zorn - John Zorn's Cobra - Live at The Knitting Factory - 06 - Lampropeltis Doliata Syspila.wav
Pre-gap length 0:00:03.62
Peak level 99.9 %
Track quality 100.0 %
Test CRC 96E9E242
Copy CRC 96E9E242
Accurately ripped (confidence 2) [570A1DDC]
Copy OK
Track 7
Filename C:\EAC-rips\John Zorn - John Zorn's Cobra - Live at The Knitting Factory - 07 - Boomslang.wav
Pre-gap length 0:00:03.74
Peak level 100.0 %
Track quality 100.0 %
Test CRC 4A7BDDD2
Copy CRC 4A7BDDD2
Accurately ripped (confidence 2) [92BD7BCE]
Copy OK
Track 8
Filename C:\EAC-rips\John Zorn - John Zorn's Cobra - Live at The Knitting Factory - 08 - Maticora Intestinalis.wav
Pre-gap length 0:00:03.65
Peak level 100.0 %
Track quality 100.0 %
Test CRC 286EC4FC
Copy CRC 286EC4FC
Accurately ripped (confidence 2) [DE9A5B44]
Copy OK
Track 9
Filename C:\EAC-rips\John Zorn - John Zorn's Cobra - Live at The Knitting Factory - 09 - Acanthopis Antarcticus.wav
Pre-gap length 0:00:09.29
Peak level 99.6 %
Track quality 100.0 %
Test CRC B62AFD9E
Copy CRC B62AFD9E
Accurately ripped (confidence 2) [73409AD4]
Copy OK
Track 10
Filename C:\EAC-rips\John Zorn - John Zorn's Cobra - Live at The Knitting Factory - 10 - Hydrophiidae.wav
Pre-gap length 0:00:03.65
Peak level 100.0 %
Track quality 100.0 %
Test CRC FFD62E39
Copy CRC FFD62E39
Accurately ripped (confidence 2) [2B7A2CB0]
Copy OK
Track 11
Filename C:\EAC-rips\John Zorn - John Zorn's Cobra - Live at The Knitting Factory - 11 - Ngu Sam Liem.wav
Pre-gap length 0:00:03.64
Peak level 100.0 %
Track quality 100.0 %
Test CRC 97F173A9
Copy CRC 97F173A9
Accurately ripped (confidence 2) [7E033E59]
Copy OK
Track 12
Filename C:\EAC-rips\John Zorn - John Zorn's Cobra - Live at The Knitting Factory - 12 - Ophiophagus Hannah.wav
Pre-gap length 0:00:01.56
Peak level 99.8 %
Track quality 100.0 %
Test CRC E1B65F72
Copy CRC E1B65F72
Accurately ripped (confidence 2) [DE7CE8DC]
Copy OK
Track 13
Filename C:\EAC-rips\John Zorn - John Zorn's Cobra - Live at The Knitting Factory - 13 - Boulengerina.wav
Pre-gap length 0:00:03.58
Peak level 100.0 %
Track quality 100.0 %
Test CRC F0EDC5F9
Copy CRC F0EDC5F9
Accurately ripped (confidence 2) [BC89D23F]
Copy OK
Track 14
Filename C:\EAC-rips\John Zorn - John Zorn's Cobra - Live at The Knitting Factory - 14 - Laticauda Laticauda.wav
Pre-gap length 0:00:09.37
Peak level 100.0 %
Track quality 100.0 %
Test CRC AB0DEA87
Copy CRC AB0DEA87
Accurately ripped (confidence 2) [ADC718C8]
Copy OK
All tracks accurately ripped
No errors occurred
End of status report
 
Содержание индексной карты (.CUE)
REM DISCID C10FD90E
REM COMMENT "ExactAudioCopy v0.99pb4"
PERFORMER "John Zorn"
TITLE "John Zorn's Cobra - Live at The Knitting Factory"
FILE "John Zorn - John Zorn's Cobra - Live at The Knitting Factory - 01 - Hemachatus Haemachatus.wav" WAVE
TRACK 01 AUDIO
TITLE "Hemachatus Haemachatus"
PERFORMER "John Zorn"
PREGAP 00:00:42
INDEX 01 00:00:00
TRACK 02 AUDIO
TITLE "Naja Naja Atra"
PERFORMER "John Zorn"
INDEX 00 02:10:66
FILE "John Zorn - John Zorn's Cobra - Live at The Knitting Factory - 02 - Naja Naja Atra.wav" WAVE
INDEX 01 00:00:00
TRACK 03 AUDIO
TITLE "Many-banded Krait"
PERFORMER "John Zorn"
INDEX 00 08:39:61
FILE "John Zorn - John Zorn's Cobra - Live at The Knitting Factory - 03 - Many-banded Krait.wav" WAVE
INDEX 01 00:00:00
TRACK 04 AUDIO
TITLE "Taipan"
PERFORMER "John Zorn"
INDEX 00 10:58:28
FILE "John Zorn - John Zorn's Cobra - Live at The Knitting Factory - 04 - Taipan.wav" WAVE
INDEX 01 00:00:00
TRACK 05 AUDIO
TITLE "D. Poplyepsis"
PERFORMER "John Zorn"
INDEX 00 01:29:56
FILE "John Zorn - John Zorn's Cobra - Live at The Knitting Factory - 05 - D. Poplyepsis.wav" WAVE
INDEX 01 00:00:00
TRACK 06 AUDIO
TITLE "Lampropeltis Doliata Syspila"
PERFORMER "John Zorn"
INDEX 00 03:20:16
FILE "John Zorn - John Zorn's Cobra - Live at The Knitting Factory - 06 - Lampropeltis Doliata Syspila.wav" WAVE
INDEX 01 00:00:00
TRACK 07 AUDIO
TITLE "Boomslang"
PERFORMER "John Zorn"
INDEX 00 02:15:19
FILE "John Zorn - John Zorn's Cobra - Live at The Knitting Factory - 07 - Boomslang.wav" WAVE
INDEX 01 00:00:00
TRACK 08 AUDIO
TITLE "Maticora Intestinalis"
PERFORMER "John Zorn"
INDEX 00 11:07:26
FILE "John Zorn - John Zorn's Cobra - Live at The Knitting Factory - 08 - Maticora Intestinalis.wav" WAVE
INDEX 01 00:00:00
TRACK 09 AUDIO
TITLE "Acanthopis Antarcticus"
PERFORMER "John Zorn"
INDEX 00 06:13:60
FILE "John Zorn - John Zorn's Cobra - Live at The Knitting Factory - 09 - Acanthopis Antarcticus.wav" WAVE
INDEX 01 00:00:00
TRACK 10 AUDIO
TITLE "Hydrophiidae"
PERFORMER "John Zorn"
INDEX 00 03:59:66
FILE "John Zorn - John Zorn's Cobra - Live at The Knitting Factory - 10 - Hydrophiidae.wav" WAVE
INDEX 01 00:00:00
TRACK 11 AUDIO
TITLE "Ngu Sam Liem"
PERFORMER "John Zorn"
INDEX 00 05:41:62
FILE "John Zorn - John Zorn's Cobra - Live at The Knitting Factory - 11 - Ngu Sam Liem.wav" WAVE
INDEX 01 00:00:00
TRACK 12 AUDIO
TITLE "Ophiophagus Hannah"
PERFORMER "John Zorn"
INDEX 00 00:53:26
FILE "John Zorn - John Zorn's Cobra - Live at The Knitting Factory - 12 - Ophiophagus Hannah.wav" WAVE
INDEX 01 00:00:00
TRACK 13 AUDIO
TITLE "Boulengerina"
PERFORMER "John Zorn"
INDEX 00 01:25:03
FILE "John Zorn - John Zorn's Cobra - Live at The Knitting Factory - 13 - Boulengerina.wav" WAVE
INDEX 01 00:00:00
TRACK 14 AUDIO
TITLE "Laticauda Laticauda"
PERFORMER "John Zorn"
INDEX 00 05:23:42
FILE "John Zorn - John Zorn's Cobra - Live at The Knitting Factory - 14 - Laticauda Laticauda.wav" WAVE
INDEX 01 00:00:00
Any questions -> support@pro-jazz.com. По всем вопросам пишите -> support@pro-jazz.com
00:18
172
Нет комментариев. Ваш будет первым!