Вы используете незарегистрированную версию компонента "Вкладки"!

Поиск

(Avant-Garde Jazz) Pharoah Sanders - Village Of The Pharoahs & Wisdom Through Music {1973} - 2011, FLAC (tracks+.cue), lossless

Треклист:
•Pharoah Sanders - Village Of The Pharoahs & Wisdom Through Music {1973}•
Жанр: Avant-Garde Jazz
Страна-производитель диска: EU
Год издания: 2011
Издатель (лейбл): Verve Music Group
Номер по каталогу: 06007 5334702
Аудиокодек: FLAC (*.flac)
Тип рипа: tracks+.cue
Битрейт аудио: lossless
Продолжительность: 01:10:04
Источник (релизер): ps7sr
Наличие сканов в содержимом раздачи: да
Треклист:
01. Village of The Pharoahs, Part One [07:14]
02. Village of The Pharoahs, Part Two [04:57]
03. Village of The Pharoahs, Part Three [04:51]
04. Myth [01:47]
05. Mansion Worlds [09:14]
06. Memories of Lee Morgan [05:38]
07. Went Like It Came [05:08]
08. High Life [04:23]
09. Love Is Everywhere [05:21]
10. Wisdom Through Music [05:45]
11. The Golden Lamp [04:47]
12. Selflessness [10:55]
 
Лог создания рипа
Exact Audio Copy V1.0 beta 1 from 15. November 2010
EAC extraction logfile from 9. April 2012, 10:17
Pharoah Sanders / Village Of The Pharoahs + Wisdom Through Music
Used drive : MATSHITADVD-RAM UJ-841S Adapter: 1 ID: 0
Read mode : Secure
Utilize accurate stream : Yes
Defeat audio cache : Yes
Make use of C2 pointers : No
Read offset correction : 102
Overread into Lead-In and Lead-Out : No
Fill up missing offset samples with silence : Yes
Delete leading and trailing silent blocks : No
Null samples used in CRC calculations : Yes
Used interface : Native Win32 interface for Win NT & 2000
Gap handling : Appended to previous track
Used output format : User Defined Encoder
Selected bitrate : 256 kBit/s
Quality : High
Add ID3 tag : No
Command line compressor : C:\Programmi\Exact Audio Copy\FLAC\FLAC.EXE
Additional command line options : -8 -V -T "ARTIST=%a" -T "TITLE=%t" -T "ALBUM=%g" -T "DATE=%y" -T "TRACKNUMBER=%n" -T "TOTALTRACKS=%x" -T "GENRE=%m" -T "ALBUMARTIST=%v" -T "ALBUM ARTIST=%v" -T "COMMENT=EAC Secure Mode, Test & Copy, AccurateRip, FLAC -8" %s
TOC of the extracted CD
Track | Start | Length | Start sector | End sector
---------------------------------------------------------
1 | 0:00.00 | 7:14.02 | 0 | 32551
2 | 7:14.02 | 4:57.59 | 32552 | 54885
3 | 12:11.61 | 4:51.31 | 54886 | 76741
4 | 17:03.17 | 1:47.10 | 76742 | 84776
5 | 18:50.27 | 9:14.38 | 84777 | 126364
6 | 28:04.65 | 5:38.27 | 126365 | 151741
7 | 33:43.17 | 5:08.38 | 151742 | 174879
8 | 38:51.55 | 4:23.21 | 174880 | 194625
9 | 43:15.01 | 5:21.10 | 194626 | 218710
10 | 48:36.11 | 5:45.38 | 218711 | 244623
11 | 54:21.49 | 4:47.05 | 244624 | 266153
12 | 59:08.54 | 10:55.70 | 266154 | 315348
Track 1
Filename D:\New Torrent\Pharoah Sanders - Village Of The Pharoahs + Wisdom Through Music (2011) [FLAC]\01 - Village of The Pharoahs, Part One.wav
Pre-gap length 0:00:02.00
Peak level 93.7 %
Extraction speed 1.5 X
Track quality 100.0 %
Test CRC 699BBCB9
Copy CRC 699BBCB9
Accurately ripped (confidence 2) [9C69314E]
Copy OK
Track 2
Filename D:\New Torrent\Pharoah Sanders - Village Of The Pharoahs + Wisdom Through Music (2011) [FLAC]\02 - Village of The Pharoahs, Part Two.wav
Peak level 85.8 %
Extraction speed 1.6 X
Track quality 100.0 %
Test CRC 823F6A4F
Copy CRC 823F6A4F
Accurately ripped (confidence 2) [A6A7216A]
Copy OK
Track 3
Filename D:\New Torrent\Pharoah Sanders - Village Of The Pharoahs + Wisdom Through Music (2011) [FLAC]\03 - Village of The Pharoahs, Part Three.wav
Peak level 88.0 %
Extraction speed 1.7 X
Track quality 100.0 %
Test CRC EA83A85F
Copy CRC EA83A85F
Accurately ripped (confidence 2) [1D7A81B3]
Copy OK
Track 4
Filename D:\New Torrent\Pharoah Sanders - Village Of The Pharoahs + Wisdom Through Music (2011) [FLAC]\04 - Myth.wav
Peak level 47.4 %
Extraction speed 1.4 X
Track quality 100.0 %
Test CRC 9C11F96B
Copy CRC 9C11F96B
Accurately ripped (confidence 2) [9355D1EE]
Copy OK
Track 5
Filename D:\New Torrent\Pharoah Sanders - Village Of The Pharoahs + Wisdom Through Music (2011) [FLAC]\05 - Mansion Worlds.wav
Pre-gap length 0:00:02.04
Peak level 97.8 %
Extraction speed 1.9 X
Track quality 100.0 %
Test CRC 6F65BA05
Copy CRC 6F65BA05
Accurately ripped (confidence 2) [5F84FA9C]
Copy OK
Track 6
Filename D:\New Torrent\Pharoah Sanders - Village Of The Pharoahs + Wisdom Through Music (2011) [FLAC]\06 - Memories of Lee Morgan.wav
Pre-gap length 0:00:02.13
Peak level 88.4 %
Extraction speed 1.7 X
Track quality 99.9 %
Test CRC 675CC8B2
Copy CRC 675CC8B2
Accurately ripped (confidence 2) [C735BE83]
Copy OK
Track 7
Filename D:\New Torrent\Pharoah Sanders - Village Of The Pharoahs + Wisdom Through Music (2011) [FLAC]\07 - Went Like It Came.wav
Pre-gap length 0:00:01.31
Peak level 93.8 %
Extraction speed 1.9 X
Track quality 100.0 %
Test CRC 9BC7A247
Copy CRC 9BC7A247
Accurately ripped (confidence 2) [BD117DBF]
Copy OK
Track 8
Filename D:\New Torrent\Pharoah Sanders - Village Of The Pharoahs + Wisdom Through Music (2011) [FLAC]\08 - High Life.wav
Pre-gap length 0:00:01.67
Peak level 98.8 %
Extraction speed 1.9 X
Track quality 100.0 %
Test CRC 0B819FCA
Copy CRC 0B819FCA
Accurately ripped (confidence 2) [1CEC0110]
Copy OK
Track 9
Filename D:\New Torrent\Pharoah Sanders - Village Of The Pharoahs + Wisdom Through Music (2011) [FLAC]\09 - Love Is Everywhere.wav
Pre-gap length 0:00:02.02
Peak level 98.8 %
Extraction speed 1.8 X
Track quality 99.9 %
Test CRC C3416AB0
Copy CRC C3416AB0
Accurately ripped (confidence 2) [48E298DB]
Copy OK
Track 10
Filename D:\New Torrent\Pharoah Sanders - Village Of The Pharoahs + Wisdom Through Music (2011) [FLAC]\10 - Wisdom Through Music.wav
Pre-gap length 0:00:02.38
Peak level 97.4 %
Extraction speed 2.0 X
Track quality 100.0 %
Test CRC FBAFE9D7
Copy CRC FBAFE9D7
Accurately ripped (confidence 2) [9C8217A4]
Copy OK
Track 11
Filename D:\New Torrent\Pharoah Sanders - Village Of The Pharoahs + Wisdom Through Music (2011) [FLAC]\11 - The Golden Lamp.wav
Pre-gap length 0:00:02.14
Peak level 98.8 %
Extraction speed 2.0 X
Track quality 100.0 %
Test CRC F3E3E7DD
Copy CRC F3E3E7DD
Accurately ripped (confidence 2) [35978A28]
Copy OK
Track 12
Filename D:\New Torrent\Pharoah Sanders - Village Of The Pharoahs + Wisdom Through Music (2011) [FLAC]\12 - Selflessness.wav
Pre-gap length 0:00:02.24
Peak level 92.5 %
Extraction speed 2.2 X
Track quality 100.0 %
Test CRC E9EC4454
Copy CRC E9EC4454
Accurately ripped (confidence 2) [F74BDB46]
Copy OK
All tracks accurately ripped
No errors occurred
End of status report
==== Log checksum 50526C378E0C0386D8B473F5C1F0DAA064544296117804C9A9AB06C6FA317F25 ====
 
Содержание индексной карты (.CUE)
REM GENRE Jazz
REM DATE 2011
REM DISCID 9A106C0C
REM COMMENT "ExactAudioCopy v1.0b1"
PERFORMER "Pharoah Sanders"
TITLE "Village Of The Pharoahs + Wisdom Through Music"
FILE "01 - Village of The Pharoahs, Part One.wav" WAVE
TRACK 01 AUDIO
TITLE "Village of The Pharoahs, Part One"
PERFORMER "Pharoah Sanders"
INDEX 01 00:00:00
FILE "02 - Village of The Pharoahs, Part Two.wav" WAVE
TRACK 02 AUDIO
TITLE "Village of The Pharoahs, Part Two"
PERFORMER "Pharoah Sanders"
INDEX 01 00:00:00
FILE "03 - Village of The Pharoahs, Part Three.wav" WAVE
TRACK 03 AUDIO
TITLE "Village of The Pharoahs, Part Three"
PERFORMER "Pharoah Sanders"
INDEX 01 00:00:00
FILE "04 - Myth.wav" WAVE
TRACK 04 AUDIO
TITLE "Myth"
PERFORMER "Pharoah Sanders"
INDEX 01 00:00:00
TRACK 05 AUDIO
TITLE "Mansion Worlds"
PERFORMER "Pharoah Sanders"
INDEX 00 01:45:06
FILE "05 - Mansion Worlds.wav" WAVE
INDEX 01 00:00:00
TRACK 06 AUDIO
TITLE "Memories of Lee Morgan"
PERFORMER "Pharoah Sanders"
INDEX 00 09:12:25
FILE "06 - Memories of Lee Morgan.wav" WAVE
INDEX 01 00:00:00
TRACK 07 AUDIO
TITLE "Went Like It Came"
PERFORMER "Pharoah Sanders"
INDEX 00 05:36:71
FILE "07 - Went Like It Came.wav" WAVE
INDEX 01 00:00:00
TRACK 08 AUDIO
TITLE "High Life"
PERFORMER "Pharoah Sanders"
INDEX 00 05:06:46
FILE "08 - High Life.wav" WAVE
INDEX 01 00:00:00
TRACK 09 AUDIO
TITLE "Love Is Everywhere"
PERFORMER "Pharoah Sanders"
INDEX 00 04:21:19
FILE "09 - Love Is Everywhere.wav" WAVE
INDEX 01 00:00:00
TRACK 10 AUDIO
TITLE "Wisdom Through Music"
PERFORMER "Pharoah Sanders"
INDEX 00 05:18:47
FILE "10 - Wisdom Through Music.wav" WAVE
INDEX 01 00:00:00
TRACK 11 AUDIO
TITLE "The Golden Lamp"
PERFORMER "Pharoah Sanders"
INDEX 00 05:43:24
FILE "11 - The Golden Lamp.wav" WAVE
INDEX 01 00:00:00
TRACK 12 AUDIO
TITLE "Selflessness"
PERFORMER "Pharoah Sanders"
INDEX 00 04:44:56
FILE "12 - Selflessness.wav" WAVE
INDEX 01 00:00:00
Any questions -> support@pro-jazz.com. По всем вопросам пишите -> support@pro-jazz.com
00:19
227
Нет комментариев. Ваш будет первым!