Вы используете незарегистрированную версию компонента "Вкладки"!

Поиск

(avant-garde) Joey Baron / Elliott Sharp / Roberto Zorzi - Beyond - 2001, FLAC (image+.cue), lossless

(avant-garde) Joey Baron / Elliott Sharp / Roberto Zorzi - Beyond - 2001, FLAC (image+.cue), lossless
Треклист:
JOEY BARON/ ELLIOTT SHARP /ROBERTO ZORZI - Beyond
Жанр: avant-garde
Год выпуска диска: 2001
Производитель диска: usa
Лейбл: Auditorium
Аудио кодек: FLAC
Тип рипа: image+.cue
Битрейт аудио: lossless
Продолжительность: 51:14
Трэклист:
1. Consumo Critico
2. Same Day Transfer
3. No Credit Card
4. Long Steps (And Well Laid)
5. Out Of My Pocket
6. Mi Radio Di Rado
7. The Erotic Dwarf
8. Kursk
9. Full Amount In Cash
10. Beyond
Доп. информация: Featuring Joey Baron, Elliott Sharp & Roberto Zorzi. Recorded and mixed by Elliott Sharp at zOaR Studio, NYC, October, 2000.
 
EAC log
Exact Audio Copy V0.99 prebeta 5 from 4. May 2009
Отчёт EAC об извлечении, выполненном 1. августа 2009, 14:10
Baron Sharp and Zorzi / Beyond
Дисковод: _NEC DVD_RW ND-3520AW Adapter: 1 ID: 0
Режим чтения : Достоверность
Использование точного потока : Да
Отключение кэша аудио : Да
Использование указателей C2 : Нет
Коррекция смещения при чтении : 48
Способность читать области Lead-in и Lead-out : Нет
Заполнение пропущенных сэмплов тишиной : Да
Удаление блоков с тишиной в начале и конце : Нет
При вычислениях CRC использовались нулевые сэмплы : Нет
Интерфейс : Встроенный Win32-интерфейс для Win NT/2000
Выходной формат : Внутренние WAV-операции
Формат сэмплов : 44.100 Гц; 16 бит; стерео
TOC извлечённого CD
Трек | Старт | Длительность | Начальный сектор | Конечный сектор
---------------------------------------------------------------------
1 | 0:00.00 | 3:25.05 | 0 | 15379
2 | 3:25.05 | 4:19.24 | 15380 | 34828
3 | 7:44.29 | 6:09.07 | 34829 | 62510
4 | 13:53.36 | 4:05.11 | 62511 | 80896
5 | 17:58.47 | 4:50.63 | 80897 | 102709
6 | 22:49.35 | 7:55.19 | 102710 | 138353
7 | 30:44.54 | 1:01.03 | 138354 | 142931
8 | 31:45.57 | 16:35.30 | 142932 | 217586
9 | 48:21.12 | 0:50.54 | 217587 | 221390
10 | 49:11.66 | 2:02.12 | 221391 | 230552
Характеристики диапазона извлечения и сообщения об ошибках
Выбранный диапазон
Имя файла D:\закачки\Baron Sharp and Zorzi - Beyond.wav
Пиковый уровень 100.0 %
Качество диапазона 99.9 %
CRC теста 9C3F67B1
CRC копии 9C3F67B1
Копирование... OK
Ошибок не произошло
AccurateRip: сводка
Трек 1 нет в базе данных
Трек 2 нет в базе данных
Трек 3 нет в базе данных
Трек 4 нет в базе данных
Трек 5 нет в базе данных
Трек 6 нет в базе данных
Трек 7 нет в базе данных
Трек 8 нет в базе данных
Трек 9 нет в базе данных
Трек 10 нет в базе данных
Ни одного трека нет в базе AccurateRip
Any questions -> support@pro-jazz.com. По всем вопросам пишите -> support@pro-jazz.com
13:11
211
Нет комментариев. Ваш будет первым!