Вы используете незарегистрированную версию компонента "Вкладки"!

Поиск

(avant-garde jazz, fusion) Bill Frisell Sextet - Live in Malmo (bootleg) - 1996, APE (image+.cue), lossless

Треклист:
Bill Frisell Sextet - Live in Malmo (bootleg)
Жанр: avant-garde jazz, fusion
Год выпуска диска: 1996
Аудио кодек: APE
Тип рипа: image+.cue
Битрейт аудио: lossless
Продолжительность: 69:57
Трэклист:
01 "Look Out For Hope"
02 "BF Improv"
03 "Crepuscule With Nellie"
04 "Resistor"
05 "Can't Be Satisfied"
06 "No Moe"
07 "Is It Sweet"
Доп. информация: Recorded live in Malmo (Sweden) apr.4 1996
Усиленный Доном Байроном и Кертисом Фаулксом БФ-Квартет. ФМ-аннонсы вырезаны (так пришло по обмену), с моей точки зрения - весьма хорош, с учетом того, что сейчас товарищ Фризелл уже такого не играет...
 
Отчёт EAC
Exact Audio Copy V0.99 prebeta 4 from 23. January 2008
EAC extraction logfile from 2. August 2009, 16:10
Bill Frisell Sextet / Live in Malmo
Used drive : Optiarc DVD RW AD-7200A Adapter: 0 ID: 1
Read mode : Secure
Utilize accurate stream : Yes
Defeat audio cache : Yes
Make use of C2 pointers : No
Read offset correction : 48
Overread into Lead-In and Lead-Out : No
Fill up missing offset samples with silence : Yes
Delete leading and trailing silent blocks : No
Null samples used in CRC calculations : Yes
Used interface : Installed external ASPI interface
Used output format : Internal WAV Routines
Sample format : 44.100 Hz; 16 Bit; Stereo
TOC of the extracted CD
Track | Start | Length | Start sector | End sector
---------------------------------------------------------
1 | 0:00.00 | 6:15.25 | 0 | 28149
2 | 6:15.25 | 2:47.25 | 28150 | 40699
3 | 9:02.50 | 21:55.55 | 40700 | 139379
4 | 30:58.30 | 7:06.41 | 139380 | 171370
5 | 38:04.71 | 11:06.57 | 171371 | 221377
6 | 49:11.53 | 6:04.13 | 221378 | 248690
7 | 55:15.66 | 14:41.18 | 248691 | 314783
Range status and errors
Selected range
Filename C:\Documents and Settings\Администратор\Рабочий стол\WB\Bill Frisell Sextet - Live in Malmo.wav
Peak level 94.7 %
Range quality 100.0 %
Copy CRC 8481EE0F
Copy OK
No errors occurred
AccurateRip summary
Track 1 not present in database
Track 2 not present in database
Track 3 not present in database
Track 4 not present in database
Track 5 not present in database
Track 6 not present in database
Track 7 not present in database
None of the tracks are present in the AccurateRip database
End of status report
Any questions -> support@pro-jazz.com. По всем вопросам пишите -> support@pro-jazz.com
13:11
331
Нет комментариев. Ваш будет первым!