Вы используете незарегистрированную версию компонента "Вкладки"!

Поиск

(Avant-Garde Jazz / World Fusion) Angelika Niescier - Sublim III - 2009, FLAC (image+.cue), lossless

(Avant-Garde Jazz / World Fusion) Angelika Niescier - Sublim III - 2009, FLAC (image+.cue), lossless
Треклист:
Angelika Niescier - Sublim III
Жанр: Avant-Garde Jazz / World Fusion / Enja
Год выпуска диска: 2009
Производитель диска: Germany (Enja ENJ-9533 2)
Аудио кодек: FLAC
Тип рипа: image+.cue
Битрейт аудио: lossless
Продолжительность: 1:06:45
Angelika Niescier saxophones
Florian Weber piano
Sebastian Räther bass
Christoph Hillmann drums
Mehdi Haddab oud (2 & 5)
1. Bill
2. Oud Suite Part One
3. Sirr
4. Stückchen Aus Geiz
5. Oud Suite Part Two
6. Thronk

 
Release Notes
Polish-German saxophone wonder Angelika Niescier is among those exceptional women that for some time now have been vitalizing and inspiring the European jazz scene with new outlines. While an ambitious musician with boundless energy, a luscious tone and virtuosic technique, she also is a composer for theatre, ballet and orchestra, devoted herself to jazz projects for children and toured many countries in Europe, Central and Eastern Asia. Angelika has received scholarships and awards such as North Rhine-Westphalia’s “Prize for Young Artists” (2003) and was the very first “Improviser in Residence” at legendary Moers Festival (2008).
"I’m affected by Coltrane", Angelika says with a slightly coquetry tone. But she is not one more of those hundreds of living musical heirs of John Coltrane. In her compositions and improvisations she rather mingles the most diverse influences of 50 years of jazz history with a very European awareness of form and thus achieves something innovative and unique. Complex staccato themes reconcile with insisting minimal art or erupt to unstoppable vitality and free collectiveness. Wildly twirling frets enlace phrases that resemble Balkan folklore. Abstraction and melodic loveliness find their suitable places. Music magazine Fono Forum read: “In her playing the late Coltrane’s intense force of expression is mixed with the intellectual control of – let’s say – Steve Coleman.”
Founded in 2000, Angelika’s quartet SUBLIM shows a creative potential that seems to be unlimited. Their previous CDs were hailed as “extraordinary” (Jazzthetik, 2002) and “the best German jazz recording since 10 years” (Jazz thing, 2005). Her first-class musicians play with the same energy as their leader and take her refined music across borders into new adventures. With their versatility and zest for playing, SUBLIM have established a musical world of their own in which jazz stars Daniel Humair and Charlie Mariano hear "the future of music“. On their new album, the band welcomes Florian Weber (Trio Minsarah) as their new pianist as well as guest musician Mehdi Haddab on oud (of DuOud fame) who adds interesting new colors and vibrations to Angelika’s “Oud Suite”. ~ Release notes
 
EAC Report
Exact Audio Copy V0.99 prebeta 5 from 4. May 2009
EAC extraction logfile from 3. October 2009, 11:59
Angelika Niescier / Sublim III
Used drive : TSSTcorpCD/DVDW SH-S182M Adapter: 2 ID: 0
Read mode : Secure
Utilize accurate stream : Yes
Defeat audio cache : Yes
Make use of C2 pointers : No
Read offset correction : 6
Overread into Lead-In and Lead-Out : No
Fill up missing offset samples with silence : Yes
Delete leading and trailing silent blocks : No
Null samples used in CRC calculations : Yes
Used interface : Installed external ASPI interface
Used output format : User Defined Encoder
Selected bitrate : 1024 kBit/s
Quality : High
Add ID3 tag : No
Command line compressor : C:\Program Files\FLAC\flac.exe
Additional command line options : -6 -V -T "ARTIST=%a" -T "TITLE=%t" -T "ALBUM=%g" -T "DATE=%y" -T "TRACKNUMBER=%n" -T "GENRE=%m" -T "COMMENT=EAC FLAC -6" %s
TOC of the extracted CD
Track | Start | Length | Start sector | End sector
---------------------------------------------------------
1 | 0:00.00 | 8:20.28 | 0 | 37527
2 | 8:20.28 | 10:48.00 | 37528 | 86127
3 | 19:08.28 | 9:42.65 | 86128 | 129842
4 | 28:51.18 | 14:59.32 | 129843 | 197299
5 | 43:50.50 | 13:36.33 | 197300 | 258532
6 | 57:27.08 | 9:18.03 | 258533 | 300385
Range status and errors
Selected range
Filename C:\Documents and Settings\Igor\My Documents\My Music\eac\Angelika Niescier - Sublim III.wav
Peak level 97.8 %
Range quality 100.0 %
Test CRC 941EF266
Copy CRC 941EF266
Copy OK
No errors occurred
AccurateRip summary
Track 1 accurately ripped (confidence 1) [8372B252]
Track 2 accurately ripped (confidence 1) [C9EEF771]
Track 3 accurately ripped (confidence 1) [29320C72]
Track 4 accurately ripped (confidence 1) [4D092512]
Track 5 accurately ripped (confidence 1) [131A3ACE]
Track 6 accurately ripped (confidence 1) [9A9A419B]
All tracks accurately ripped
End of status report
Any questions -> support@pro-jazz.com. По всем вопросам пишите -> support@pro-jazz.com
17:28
145
Нет комментариев. Ваш будет первым!