Вы используете незарегистрированную версию компонента "Вкладки"!

Поиск

(Avant-Garde Jazz) The Universal Quartet - The Universal Quartet (Yusef Lateef) - 2009, FLAC (tracks+.cue), lossless

(Avant-Garde Jazz) The Universal Quartet - The Universal Quartet (Yusef Lateef) - 2009, FLAC (tracks+.cue), lossless
Треклист:
The Universal Quartet - The Universal Quartet
Жанр: Avant-Garde Jazz
Год выпуска : 2009
Лейбл: Blackout Music
Аудио кодек: FLAC
Тип рипа: tracks+.cue
Битрейт аудио: lossless
Продолжительность: 01:13:23
Рип: heureka88 - What CD


01. Clustonics (5:11)
02. Grøn Galakse (5:08)
03. 47th Street Breakdown (7:02)
04. Obo River (6:12)
05. Before until After (6:59)
06. Masara #5 (8:23)
07. Nine Dreams (3:40)
08. Andromeda (4:09)
09. Clustigous (5:51)
10. Huyacaya (3:31)
11. Nine Hearts (7:30)
12. Sky Magneta (9:48)

 
XLD
X Lossless Decoder version 20091123 (114.0)
XLD extraction logfile from 2009-11-24 16:09:45 +0100
The Universal Quartet / The Universal Quartet
Used drive : MATSHITA DVD-R UJ-857E (revision ZF1E)
Use cdparanoia mode : YES (CDParanoia III 10.2 engine)
Disable audio cache : OK for the drive with cache less than 2750KB
Make use of C2 pointers : NO
Read offset correction : 102
Max retry count : 100
TOC of the extracted CD
Track | Start | Length | Start sector | End sector
---------------------------------------------------------
1 | 00:00:00 | 05:10:49 | 0 | 23298
2 | 05:10:49 | 05:07:40 | 23299 | 46363
3 | 10:18:14 | 07:02:22 | 46364 | 78035
4 | 17:20:36 | 06:11:42 | 78036 | 105902
5 | 23:32:03 | 06:58:54 | 105903 | 137306
6 | 30:30:57 | 08:23:01 | 137307 | 175032
7 | 38:53:58 | 03:40:29 | 175033 | 191561
8 | 42:34:12 | 04:09:17 | 191562 | 210253
9 | 46:43:29 | 05:51:11 | 210254 | 236589
10 | 52:34:40 | 03:30:58 | 236590 | 252397
11 | 56:05:23 | 07:29:54 | 252398 | 286126
12 | 63:35:02 | 09:48:03 | 286127 | 330229
All Tracks
Album gain : -5.75 dB
Peak : 0.999969
Track 01
Filename : /Users/RIAA/Desktop/Universal Q/01 Clustonics.flac
Track gain : -8.01 dB
Peak : 0.999969
CRC32 hash (test run) : B81179F4
CRC32 hash : B81179F4
CRC32 hash (skip zero) : E84D6CA7
AccurateRip signature : AC025471
->Track not present in AccurateRip database.
Statistics
Read error : 0
Skipped (treated as error) : 0
Edge jitter error (maybe fixed) : 0
Atom jitter error (maybe fixed) : 0
Drift error (maybe fixed) : 0
Dropped bytes error (maybe fixed) : 0
Duplicated bytes error (maybe fixed) : 0
Track 02
Filename : /Users/RIAA/Desktop/Universal Q/02 Grøn Galakse.flac
Track gain : -1.79 dB
Peak : 0.998871
CRC32 hash (test run) : 3E1D2379
CRC32 hash : 3E1D2379
CRC32 hash (skip zero) : E8392D24
AccurateRip signature : 277D9B81
->Track not present in AccurateRip database.
Statistics
Read error : 0
Skipped (treated as error) : 0
Edge jitter error (maybe fixed) : 0
Atom jitter error (maybe fixed) : 0
Drift error (maybe fixed) : 0
Dropped bytes error (maybe fixed) : 0
Duplicated bytes error (maybe fixed) : 0
Track 03
Filename : /Users/RIAA/Desktop/Universal Q/03 47th Street Breakdown.flac
Track gain : 0.61 dB
Peak : 0.983948
CRC32 hash (test run) : 3002714D
CRC32 hash : 3002714D
CRC32 hash (skip zero) : 7E61A666
AccurateRip signature : 4B3BE1EA
->Track not present in AccurateRip database.
Statistics
Read error : 0
Skipped (treated as error) : 0
Edge jitter error (maybe fixed) : 0
Atom jitter error (maybe fixed) : 0
Drift error (maybe fixed) : 0
Dropped bytes error (maybe fixed) : 0
Duplicated bytes error (maybe fixed) : 0
Track 04
Filename : /Users/RIAA/Desktop/Universal Q/04 Obo River.flac
Track gain : 4.49 dB
Peak : 0.867004
CRC32 hash (test run) : E56FB73D
CRC32 hash : E56FB73D
CRC32 hash (skip zero) : 89337926
AccurateRip signature : DA4DFE26
->Track not present in AccurateRip database.
Statistics
Read error : 0
Skipped (treated as error) : 0
Edge jitter error (maybe fixed) : 0
Atom jitter error (maybe fixed) : 0
Drift error (maybe fixed) : 0
Dropped bytes error (maybe fixed) : 0
Duplicated bytes error (maybe fixed) : 0
Track 05
Filename : /Users/RIAA/Desktop/Universal Q/05 Before until After.flac
Track gain : -6.29 dB
Peak : 0.999969
CRC32 hash (test run) : A298E4B8
CRC32 hash : A298E4B8
CRC32 hash (skip zero) : 647E0214
AccurateRip signature : B8FF03A1
->Track not present in AccurateRip database.
Statistics
Read error : 0
Skipped (treated as error) : 0
Edge jitter error (maybe fixed) : 0
Atom jitter error (maybe fixed) : 0
Drift error (maybe fixed) : 0
Dropped bytes error (maybe fixed) : 0
Duplicated bytes error (maybe fixed) : 0
Track 06
Filename : /Users/RIAA/Desktop/Universal Q/06 Masara #5.flac
Track gain : -0.56 dB
Peak : 0.999969
CRC32 hash (test run) : 496B82A6
CRC32 hash : 496B82A6
CRC32 hash (skip zero) : 0D1A583A
AccurateRip signature : 426C4C4F
->Track not present in AccurateRip database.
Statistics
Read error : 0
Skipped (treated as error) : 0
Edge jitter error (maybe fixed) : 0
Atom jitter error (maybe fixed) : 0
Drift error (maybe fixed) : 0
Dropped bytes error (maybe fixed) : 0
Duplicated bytes error (maybe fixed) : 0
Track 07
Filename : /Users/RIAA/Desktop/Universal Q/07 Nine Dreams.flac
Track gain : -7.51 dB
Peak : 0.999969
CRC32 hash (test run) : D1B00179
CRC32 hash : D1B00179
CRC32 hash (skip zero) : 8F06E269
AccurateRip signature : 5B5CFF10
->Track not present in AccurateRip database.
Statistics
Read error : 0
Skipped (treated as error) : 0
Edge jitter error (maybe fixed) : 0
Atom jitter error (maybe fixed) : 0
Drift error (maybe fixed) : 0
Dropped bytes error (maybe fixed) : 0
Duplicated bytes error (maybe fixed) : 0
Track 08
Filename : /Users/RIAA/Desktop/Universal Q/08 Andromeda.flac
Track gain : 1.87 dB
Peak : 0.976135
CRC32 hash (test run) : 36FEC1F4
CRC32 hash : 36FEC1F4
CRC32 hash (skip zero) : 642F6299
AccurateRip signature : 8A306AAD
->Track not present in AccurateRip database.
Statistics
Read error : 0
Skipped (treated as error) : 0
Edge jitter error (maybe fixed) : 0
Atom jitter error (maybe fixed) : 0
Drift error (maybe fixed) : 0
Dropped bytes error (maybe fixed) : 0
Duplicated bytes error (maybe fixed) : 0
Track 09
Filename : /Users/RIAA/Desktop/Universal Q/09 Clustigous.flac
Track gain : -7.17 dB
Peak : 0.999908
CRC32 hash (test run) : 87E221FC
CRC32 hash : 87E221FC
CRC32 hash (skip zero) : D6922DEE
AccurateRip signature : 142C46B0
->Track not present in AccurateRip database.
Statistics
Read error : 0
Skipped (treated as error) : 0
Edge jitter error (maybe fixed) : 0
Atom jitter error (maybe fixed) : 0
Drift error (maybe fixed) : 0
Dropped bytes error (maybe fixed) : 0
Duplicated bytes error (maybe fixed) : 0
Track 10
Filename : /Users/RIAA/Desktop/Universal Q/10 Huyacaya.flac
Track gain : 3.82 dB
Peak : 0.970184
CRC32 hash (test run) : DC4156A9
CRC32 hash : DC4156A9
CRC32 hash (skip zero) : B49E2294
AccurateRip signature : A5358B58
->Track not present in AccurateRip database.
Statistics
Read error : 0
Skipped (treated as error) : 0
Edge jitter error (maybe fixed) : 0
Atom jitter error (maybe fixed) : 0
Drift error (maybe fixed) : 0
Dropped bytes error (maybe fixed) : 0
Duplicated bytes error (maybe fixed) : 0
Track 11
Filename : /Users/RIAA/Desktop/Universal Q/11 Nine Hearts.flac
Track gain : -6.69 dB
Peak : 0.999969
CRC32 hash (test run) : 7ECF0EF0
CRC32 hash : 7ECF0EF0
CRC32 hash (skip zero) : B3A9F008
AccurateRip signature : 8BE81BFF
->Track not present in AccurateRip database.
Statistics
Read error : 0
Skipped (treated as error) : 0
Edge jitter error (maybe fixed) : 0
Atom jitter error (maybe fixed) : 0
Drift error (maybe fixed) : 0
Dropped bytes error (maybe fixed) : 0
Duplicated bytes error (maybe fixed) : 0
Track 12
Filename : /Users/RIAA/Desktop/Universal Q/12 Sky Magneta.flac
Track gain : -0.45 dB
Peak : 0.999969
CRC32 hash (test run) : A5A90B01
CRC32 hash : A5A90B01
CRC32 hash (skip zero) : 1E7897BA
AccurateRip signature : 219622BD
->Track not present in AccurateRip database.
Statistics
Read error : 0
Skipped (treated as error) : 0
Edge jitter error (maybe fixed) : 0
Atom jitter error (maybe fixed) : 0
Drift error (maybe fixed) : 0
Dropped bytes error (maybe fixed) : 0
Duplicated bytes error (maybe fixed) : 0
No errors occurred
End of status report
 
CUE
PERFORMER "The Universal Quartet"
TITLE "The Universal Quartet"
REM GENRE "Jazz"
REM DATE 2009
FILE "01 Clustonics.wav" WAVE
TRACK 01 AUDIO
TITLE "Clustonics"
ISRC DKEM40900701
INDEX 01 00:00:00
FILE "02 Gron Galakse.wav" WAVE
TRACK 02 AUDIO
TITLE "Gron Galakse"
ISRC DKEM40900702
INDEX 01 00:00:00
FILE "03 47th Street Breakdown.wav" WAVE
TRACK 03 AUDIO
TITLE "47th Street Breakdown"
ISRC DKEM40900703
INDEX 01 00:00:00
FILE "04 Obo River.wav" WAVE
TRACK 04 AUDIO
TITLE "Obo River"
ISRC DKEM40900704
INDEX 01 00:00:00
FILE "05 Before until After.wav" WAVE
TRACK 05 AUDIO
TITLE "Before until After"
ISRC DKEM40900705
INDEX 01 00:00:00
FILE "06 Masara #5.wav" WAVE
TRACK 06 AUDIO
TITLE "Masara #5"
ISRC DKEM40900706
INDEX 01 00:00:00
FILE "07 Nine Dreams.wav" WAVE
TRACK 07 AUDIO
TITLE "Nine Dreams"
ISRC DKEM40900707
INDEX 01 00:00:00
FILE "08 Andromeda.wav" WAVE
TRACK 08 AUDIO
TITLE "Andromeda"
ISRC DKEM40900708
INDEX 01 00:00:00
FILE "09 Clustigous.wav" WAVE
TRACK 09 AUDIO
TITLE "Clustigous"
ISRC DKEM40900709
INDEX 01 00:00:00
FILE "10 Huyacaya.wav" WAVE
TRACK 10 AUDIO
TITLE "Huyacaya"
ISRC DKEM40900710
INDEX 01 00:00:00
FILE "11 Nine Hearts.wav" WAVE
TRACK 11 AUDIO
TITLE "Nine Hearts"
ISRC DKEM40900711
INDEX 01 00:00:00
FILE "12 Sky Magneta.wav" WAVE
TRACK 12 AUDIO
TITLE "Sky Magneta"
ISRC DKEM40900712
INDEX 01 00:00:00

Kasper Tranberg,
Yusef Lateef,
Adam Rudolph,
Kresten Osgood
Any questions -> support@pro-jazz.com. По всем вопросам пишите -> support@pro-jazz.com
17:29
136
Нет комментариев. Ваш будет первым!