Вы используете незарегистрированную версию компонента "Вкладки"!

Поиск

(Avant-garde Jazz) The Andrzej Trzaskowski Sextet (feat. Ted Curson) - Seant {1966} - 2004, APE (image+.cue), lossless

(Avant-garde Jazz) The Andrzej Trzaskowski Sextet (feat. Ted Curson) - Seant {1966} - 2004, APE (image+.cue), lossless
Треклист:
The Andrzej Trzaskowski Sextet (feat. Ted Curson) / Seant {1966}
Жанр: Avant-garde Jazz
Страна-производитель диска: Poland
Год издания диска: 2004
Издатель (лейбл): Polskie Nagrania
Номер по каталогу: PNCD 911
Страна: Poland
Аудиокодек: APE (*.ape)
Тип рипа: image+.cue
Битрейт аудио: lossless
Продолжительность: 49:20
Источник (релизер): SurowyTato
Наличие сканов в содержимом раздачи: нет
Треклист:
1. Seant [9:58]
2. Wariacja Na Temat 'Oj, Tam U Boru' / Variation On The Theme 'Near The Forest' [6:37]
3. The Quibble [7:58]
4. Cosinusoida [24:45]
 
Лог создания рипа
EAC extraction logfile from 12. November 2006, 22:37 for CD
Andrzej Trzaskowski Sextet / Seant
Used drive : LITE-ON DVDRW SOHW-1213S Adapter: 1 ID: 1
Read mode : Secure with NO C2, accurate stream, disable cache
Read offset correction : 12
Overread into Lead-In and Lead-Out : No
Used output format : Internal WAV Routines
44.100 Hz; 16 Bit; Stereo
Other options :
Fill up missing offset samples with silence : Yes
Delete leading and trailing silent blocks : No
Installed external ASPI interface
Range status and errors
Selected range
Filename D:\INCOMING\EAC\CDImage.wav
Peak level 97.7 %
Range quality 100.0 %
CRC 75C73662
Copy OK
No errors occured
End of status report
 
Содержание индексной карты (.CUE)
PERFORMER "Andrzej Trzaskowski Sextet"
TITLE "Seant"
FILE "CDImage.ape" WAVE
TRACK 01 AUDIO
TITLE "Seant"
PERFORMER "Andrzej Trzaskowski Sextet"
INDEX 01 00:00:00
TRACK 02 AUDIO
TITLE "Wariacja Na Temat 'Oj, Tam U Boru' / Variation On The Theme 'Near The Forest'"
PERFORMER "Andrzej Trzaskowski Sextet"
INDEX 01 09:58:37
TRACK 03 AUDIO
TITLE "The Quibble"
PERFORMER "Andrzej Trzaskowski Sextet"
INDEX 01 16:35:38
TRACK 04 AUDIO
TITLE "Cosinusoida"
PERFORMER "Andrzej Trzaskowski Sextet"
INDEX 01 24:33:65
 
Об альбоме (сборнике)
Recorded in National Philharmonic Hall in Warsaw, December 1965 and December 1966
Recording director: Antoni Karuzas
Recording engineer: Janusz Pollo
24-bit remastered from original master tapes XL 0378
 
Состав
Andrzej Trzaskowski - piano
Ted Curson - trumpet
Wlodzimierz Nahorny - alto saxophone
Janusz Muniak - soprano saxophone
Jacek Ostaszewski - bas
Adam Jedrzejowski - drums
Any questions -> support@pro-jazz.com. По всем вопросам пишите -> support@pro-jazz.com
02:20
145
Нет комментариев. Ваш будет первым!