Вы используете незарегистрированную версию компонента "Вкладки"!

Поиск

(Avant-Garde Jazz) John Coltrane - First Meditations (for quartet) (1965) - 1992, FLAC (tracks+.cue), lossless

(Avant-Garde Jazz) John Coltrane - First Meditations (for quartet) (1965) - 1992, FLAC (tracks+.cue), lossless
Треклист:
John Coltrane – First Meditations (for quartet) (1965)
Жанр: Avant-Garde Jazz
Год издания: 1992
Издатель (лейбл): impulse!
Номер по каталогу: GRD-118
Аудиокодек: FLAC (*.flac)
Тип рипа: tracks+.cue
Битрейт аудио: lossless
Продолжительность: 52:17
Rip by mishka1981
Наличие сканов в содержимом раздачи: да
Треклист:
01. Love (8:04)
02. Compassion (9:33)
03. Joy (8:52)
04. Consequences (7:21)
05. Serenity (6:13)
06. Joy (Alternate Version) (12:14)
Personnel:
John Coltrane - ts
McCoy Tyner - p
Jimmy Garrison - b
Elvin Jones - d
 
 
Лог создания рипа
Exact Audio Copy V1.0 beta 1 from 15. November 2010
EAC extraction logfile from 9. July 2012, 22:21
John Coltrane / First Meditations (for quartet)
Used drive : Optiarc DVD RW AD-7710H Adapter: 1 ID: 0
Read mode : Secure
Utilize accurate stream : Yes
Defeat audio cache : Yes
Make use of C2 pointers : No
Read offset correction : 48
Overread into Lead-In and Lead-Out : No
Fill up missing offset samples with silence : Yes
Delete leading and trailing silent blocks : No
Null samples used in CRC calculations : Yes
Used interface : Native Win32 interface for Win NT & 2000
Gap handling : Appended to previous track
Used output format : User Defined Encoder
Selected bitrate : 896 kBit/s
Quality : High
Add ID3 tag : No
Command line compressor : C:\Program Files\Exact Audio Copy\FLAC\FLAC.EXE
Additional command line options : -8 -V -T "ARTIST=%a" -T "TITLE=%t" -T "ALBUM=%g" -T "DATE=%y" -T "TRACKNUMBER=%n" -T "GENRE=%m" -T "COMMENT=%e" %j--picture="%i"%j %s -o %d
TOC of the extracted CD
Track | Start | Length | Start sector | End sector
---------------------------------------------------------
1 | 0:00.00 | 8:03.65 | 0 | 36289
2 | 8:03.65 | 9:32.60 | 36290 | 79249
3 | 17:36.50 | 8:52.30 | 79250 | 119179
4 | 26:29.05 | 7:21.07 | 119180 | 152261
5 | 33:50.12 | 6:12.53 | 152262 | 180214
6 | 40:02.65 | 12:14.15 | 180215 | 235279
Track 1
Filename C:\MY RIPS\01 - Love.wav
Pre-gap length 0:00:02.00
Peak level 87.9 %
Extraction speed 3.1 X
Track quality 100.0 %
Test CRC B3948D09
Copy CRC B3948D09
Cannot be verified as accurate (confidence 6) [C34F68A5], AccurateRip returned [ABCAEDFA]
Copy OK
Track 2
Filename C:\MY RIPS\02 - Compassion.wav
Peak level 98.4 %
Extraction speed 3.5 X
Track quality 99.9 %
Test CRC 2B0CFB80
Copy CRC 2B0CFB80
Cannot be verified as accurate (confidence 6) [202043B3], AccurateRip returned [1F9980FD]
Copy OK
Track 3
Filename C:\MY RIPS\03 - Joy.wav
Pre-gap length 0:00:02.63
Peak level 97.1 %
Extraction speed 4.4 X
Track quality 100.0 %
Test CRC 8A5ED300
Copy CRC 8A5ED300
Cannot be verified as accurate (confidence 6) [475B80FB], AccurateRip returned [C21E31A1]
Copy OK
Track 4
Filename C:\MY RIPS\04 - Consequences.wav
Pre-gap length 0:00:03.28
Peak level 97.9 %
Extraction speed 4.7 X
Track quality 100.0 %
Test CRC 5F26D89A
Copy CRC 5F26D89A
Cannot be verified as accurate (confidence 6) [791B2D6C], AccurateRip returned [C16D2B43]
Copy OK
Track 5
Filename C:\MY RIPS\05 - Serenity.wav
Peak level 92.9 %
Extraction speed 5.0 X
Track quality 100.0 %
Test CRC B3904834
Copy CRC B3904834
Cannot be verified as accurate (confidence 6) [8C6FEE6F], AccurateRip returned [CE94D796]
Copy OK
Track 6
Filename C:\MY RIPS\06 - Joy (Alternate Version).wav
Pre-gap length 0:00:02.25
Peak level 100.0 %
Extraction speed 5.3 X
Track quality 99.9 %
Test CRC 51F6163F
Copy CRC 51F6163F
Cannot be verified as accurate (confidence 6) [30C0AC88], AccurateRip returned [55EF7B45]
Copy OK
No tracks could be verified as accurate
You may have a different pressing from the one(s) in the database
No errors occurred
End of status report
==== Log checksum 3688F532FD50609F704D409311164EE5837AB2BE5ABB49D2CF5819C8F129A182 ====
 
Содержание индексной карты (.CUE)
REM GENRE Jazz
REM DATE 1965
REM DISCID 420C4106
REM COMMENT "ExactAudioCopy v1.0b1"
PERFORMER "John Coltrane"
TITLE "First Meditations (for quartet)"
FILE "01 - Love.wav" WAVE
TRACK 01 AUDIO
TITLE "Love"
PERFORMER "John Coltrane"
INDEX 01 00:00:00
FILE "02 - Compassion.wav" WAVE
TRACK 02 AUDIO
TITLE "Compassion"
PERFORMER "John Coltrane"
INDEX 01 00:00:00
TRACK 03 AUDIO
TITLE "Joy"
PERFORMER "John Coltrane"
INDEX 00 09:29:72
FILE "03 - Joy.wav" WAVE
INDEX 01 00:00:00
TRACK 04 AUDIO
TITLE "Consequences"
PERFORMER "John Coltrane"
INDEX 00 08:49:02
FILE "04 - Consequences.wav" WAVE
INDEX 01 00:00:00
FILE "05 - Serenity.wav" WAVE
TRACK 05 AUDIO
TITLE "Serenity"
PERFORMER "John Coltrane"
INDEX 01 00:00:00
TRACK 06 AUDIO
TITLE "Joy (Alternate Version)"
PERFORMER "John Coltrane"
INDEX 00 06:10:28
FILE "06 - Joy (Alternate Version).wav" WAVE
INDEX 01 00:00:00
Any questions -> support@pro-jazz.com. По всем вопросам пишите -> support@pro-jazz.com
02:20
149
Нет комментариев. Ваш будет первым!