Вы используете незарегистрированную версию компонента "Вкладки"!

Поиск

(Avant-Garde Jazz) Sumbur - Sumbur - 1993, FLAC (image+.cue), lossless

(Avant-Garde Jazz) Sumbur - Sumbur - 1993, FLAC (image+.cue), lossless
Треклист:
Sumbur / Sumbur
Жанр: Avant-Garde Jazz
Страна-производитель диска: France
Год издания: 1993
Издатель (лейбл): Organic
Номер по каталогу: OCD 03
Страна: Netherlands
Аудиокодек: FLAC (*.flac)
Тип рипа: image+.cue
Битрейт аудио: lossless
Продолжительность: 53:25
Источник (релизер): Собственный CD
Наличие сканов в содержимом раздачи: да
Треклист:
1. Come Data Soul (Part 1)
2. Come Data Soul (Part 2)
3. On Boot Scum
4. Material Fudge
5. It Man Struggle Hit
6. Low Low Spirit
7. Didn't Get The Minute Of Silence
8. It (Shatter Shatter)
9. Womoon
10. Gloombutcher
11. A Gargoyle's Job
12. Delicatessen Love Rite
 
Лог создания рипа
Exact Audio Copy V1.0 beta 3 from 29. August 2011
Отчёт EAC об извлечении, выполненном 19. сентября 2012, 8:35
Sumbur / Sumbur
Дисковод: ATAPI iHAS120 6 Adapter: 0 ID: 1
Режим чтения : Достоверность
Использование точного потока : Да
Отключение кэша аудио : Да
Использование указателей C2 : Нет
Коррекция смещения при чтении : 6
Способность читать области Lead-in и Lead-out : Нет
Заполнение пропущенных сэмплов тишиной : Да
Удаление блоков с тишиной в начале и конце : Нет
При вычислениях CRC использовались нулевые сэмплы : Да
Интерфейс : Встроенный Win32-интерфейс для Win NT/2000
Выходной формат : Пользовательский кодировщик
Выбранный битрейт : 768 kBit/s
Качество : Высокий
Добавление ID3-тега : Нет
Утилита сжатия : C:\Program Files (x86)\Exact Audio Copy\FLAC\FLAC.EXE
Дополнительные параметры : -6 -V -T "ARTIST=%artist%" -T "TITLE=%title%" -T "ALBUM=%albumtitle%" -T "DATE=%year%" -T "TRACKNUMBER=%tracknr%" -T "GENRE=%genre%" -T "COMMENT=%comment%" -T "BAND=%albuminterpret%" -T "ALBUMARTIST=%albuminterpret%" -T "COMPOSER=%composer%" %haslyrics%--tag-from-file=LYRICS="%lyricsfile%"%haslyrics% -T "DISCNUMBER=%cdnumber%" -T "TOTALDISCS=%totalcds%" -T "TOTALTRACKS=%numtracks%" %hascover%--picture="%coverfile%"%hascover% %source% -o %dest%
TOC извлечённого CD
Трек | Старт | Длительность | Начальный сектор | Конечный сектор
---------------------------------------------------------------------
1 | 0:00.32 | 3:29.33 | 32 | 15739
2 | 3:29.65 | 2:28.40 | 15740 | 26879
3 | 5:58.30 | 4:09.67 | 26880 | 45621
4 | 10:08.22 | 5:48.53 | 45622 | 71774
5 | 15:57.00 | 5:56.45 | 71775 | 98519
6 | 21:53.45 | 3:54.72 | 98520 | 116141
7 | 25:48.42 | 1:03.58 | 116142 | 120924
8 | 26:52.25 | 3:29.27 | 120925 | 136626
9 | 30:21.52 | 6:21.15 | 136627 | 165216
10 | 36:42.67 | 3:29.20 | 165217 | 180911
11 | 40:12.12 | 5:10.20 | 180912 | 204181
12 | 45:22.32 | 8:03.43 | 204182 | 240449
Характеристики диапазона извлечения и сообщения об ошибках
Выбранный диапазон
Имя файла C:\Users\Sergey\Downloads\Sumbur\Sumbur - Sumbur.wav
Пиковый уровень 98.6 %
Скорость извлечения 8.3 X
Качество диапазона 100.0 %
CRC теста 13EAA6F2
CRC копии 13EAA6F2
Копирование... OK
Ошибок не произошло
AccurateRip: сводка
Трек 1 : извлечено точно (доверие 1) [8A6739A7] (AR v1)
Трек 2 : извлечено точно (доверие 1) [7BB2424B] (AR v1)
Трек 3 : извлечено точно (доверие 1) [4702EF1A] (AR v1)
Трек 4 : извлечено точно (доверие 1) [D61882B8] (AR v1)
Трек 5 : извлечено точно (доверие 1) [E1C92C25] (AR v1)
Трек 6 : извлечено точно (доверие 1) [BC6F91AF] (AR v1)
Трек 7 : извлечено точно (доверие 1) [B5DFE653] (AR v1)
Трек 8 : извлечено точно (доверие 1) [58523A2E] (AR v1)
Трек 9 : извлечено точно (доверие 1) [467A51A7] (AR v1)
Трек 10 : извлечено точно (доверие 1) [C1A9FD1F] (AR v1)
Трек 11 : извлечено точно (доверие 1) [2654C58D] (AR v1)
Трек 12 : извлечено точно (доверие 1) [ACD5A4C1] (AR v1)
Все треки извлечены точно
Конец отчёта
---- CUETools DB Plugin V2.1.3
[CTDB TOCID: gb8h.9LxVrA.i7LhlUAkiD6CmVA-] disk not present in database, Submit result: discs with pregaps not supported in this protocol version
==== Контрольная сумма отчёта 6D201293D96AC9B62734C2E8D7FC489EB4077BD4C8B0441C3E68295339112B4C ====
Any questions -> support@pro-jazz.com. По всем вопросам пишите -> support@pro-jazz.com
03:55
191
Нет комментариев. Ваш будет первым!