Вы используете незарегистрированную версию компонента "Вкладки"!

Поиск

(Avant-Garde Jazz, Hard Bop, Ballads) Archie Shepp - Dollar Brand (Abdullah Ibrahim) - Duet - 1978 [1990, Denon: 8561], FLAC (tracks+.cue), lossless

(Avant-Garde Jazz, Hard Bop, Ballads) Archie Shepp - Dollar Brand (Abdullah Ibrahim) - Duet - 1978 [1990, Denon: 8561], FLAC (tracks+.cue), lossless
Треклист:
Duet / Archie Shepp - Dollar Brand
Жанр: Avant-Garde Jazz, Hard Bop, Ballads
Год записи альбома: 1978
Год издания диска: 1990
Издатель (лейбл): Denon Records
Номер по каталогу: DC-8561
Аудиокодек: FLAC (*.flac)
Тип рипа: tracks+.cue
Битрейт аудио: lossless
Продолжительность: 44:41
Источник: Собственные рипы
Наличие сканов в содержимом раздачи: да
Треклист:
01. Fortunato - 7:41
02. Barefoot Boy From Queens Town - To Mongezi - 7:51
03. Left Alone - 7:55
04. Theme From 'Proof Of The Man' - 8:18
05. Ubu-Suku - 4:35
06. Moniebah - 8:22
.
 
МУЗЫКАНТЫ
Archie Shepp - Tenor, Alto & Soprano Saxophones
Dollar Brand - Piano
 
Лог создания рипа
Exact Audio Copy V1.0 beta 3 from 29. August 2011
EAC extraction logfile from 17. September 2012, 20:50
Archie Shepp - Dollar Brand / Duet
Used drive : HL-DT-STDVD-RAM GSA-H55N Adapter: 0 ID: 2
Read mode : Secure
Utilize accurate stream : Yes
Defeat audio cache : Yes
Make use of C2 pointers : No
Read offset correction : 102
Overread into Lead-In and Lead-Out : Yes
Fill up missing offset samples with silence : Yes
Delete leading and trailing silent blocks : No
Null samples used in CRC calculations : Yes
Used interface : Native Win32 interface for Win NT & 2000
Gap handling : Appended to previous track
Used output format : User Defined Encoder
Selected bitrate : 128 kBit/s
Quality : High
Add ID3 tag : No
Command line compressor : G:\Program Files\Exact Audio Copy\Encoder\flac.exe
Additional command line options : -V -8 -T "Genre=%genre%" -T "Artist=%artist%" -T "Title=%title%" -T "Album=%albumtitle%" -T "Date=%year%" -T "Tracknumber=%tracknr%" -T "Comment=EAC1.0b3 FLAC -8" %source%
TOC of the extracted CD
Track | Start | Length | Start sector | End sector
---------------------------------------------------------
1 | 0:00.00 | 7:41.10 | 0 | 34584
2 | 7:41.10 | 7:51.03 | 34585 | 69912
3 | 15:32.13 | 7:54.45 | 69913 | 105507
4 | 23:26.58 | 8:17.60 | 105508 | 142842
5 | 31:44.43 | 4:34.50 | 142843 | 163442
6 | 36:19.18 | 8:22.27 | 163443 | 201119
Track 1
Filename F:\WAV\01 - Fortunato.wav
Pre-gap length 0:00:02.00
Peak level 62.9 %
Extraction speed 5.0 X
Track quality 99.9 %
Test CRC C763DFE9
Copy CRC C763DFE9
Accurately ripped (confidence 3) [304D1D0B] (AR v1)
Copy OK
Track 2
Filename F:\WAV\02 - Barefoot Boy From Queens Town - To Mongezi.wav
Pre-gap length 0:00:01.35
Peak level 80.1 %
Extraction speed 6.2 X
Track quality 100.0 %
Test CRC 7378BA77
Copy CRC 7378BA77
Accurately ripped (confidence 3) [3EC3291F] (AR v1)
Copy OK
Track 3
Filename F:\WAV\03 - Left Alone.wav
Pre-gap length 0:00:02.13
Peak level 75.1 %
Extraction speed 6.8 X
Track quality 100.0 %
Test CRC 1382BF94
Copy CRC 1382BF94
Accurately ripped (confidence 3) [E936258A] (AR v1)
Copy OK
Track 4
Filename F:\WAV\04 - Theme From ''Proof Of The Man''.wav
Pre-gap length 0:00:01.53
Peak level 73.8 %
Extraction speed 7.4 X
Track quality 100.0 %
Test CRC 05596723
Copy CRC 05596723
Accurately ripped (confidence 3) [AC07482D] (AR v1)
Copy OK
Track 5
Filename F:\WAV\05 - Ubu-Suku.wav
Pre-gap length 0:00:02.58
Peak level 78.2 %
Extraction speed 7.3 X
Track quality 100.0 %
Test CRC 32D1FA10
Copy CRC 32D1FA10
Accurately ripped (confidence 3) [9F449B56] (AR v1)
Copy OK
Track 6
Filename F:\WAV\06 - Moniebah.wav
Pre-gap length 0:00:03.25
Peak level 74.3 %
Extraction speed 6.9 X
Track quality 100.0 %
Test CRC D462DB3A
Copy CRC D462DB3A
Accurately ripped (confidence 3) [1AC2EE79] (AR v1)
Copy OK
All tracks accurately ripped
No errors occurred
End of status report
==== Log checksum F8B211E7FE0CC6817D5BCF95AFBD2EA6BA8BC440D2A56229D063D6129B739914 ====
 
Содержание индексной карты (.CUE)
REM GENRE Jazz
REM DATE 1978
REM DISCID 480A7906
REM COMMENT "ExactAudioCopy v1.0b3"
PERFORMER "Archie Shepp - Dollar Brand"
TITLE "Duet"
FILE "01 - Fortunato.wav" WAVE
TRACK 01 AUDIO
TITLE "Fortunato"
PERFORMER "Archie Shepp - Dollar Brand"
FLAGS PRE
INDEX 01 00:00:00
TRACK 02 AUDIO
TITLE "Barefoot Boy From Queens Town - To Mongezi"
PERFORMER "Archie Shepp - Dollar Brand"
FLAGS PRE
INDEX 00 07:39:50
FILE "02 - Barefoot Boy From Queens Town - To Mongezi.wav" WAVE
INDEX 01 00:00:00
TRACK 03 AUDIO
TITLE "Left Alone"
PERFORMER "Archie Shepp - Dollar Brand"
FLAGS PRE
INDEX 00 07:48:65
FILE "03 - Left Alone.wav" WAVE
INDEX 01 00:00:00
TRACK 04 AUDIO
TITLE "Theme From 'Proof Of The Man'"
PERFORMER "Archie Shepp - Dollar Brand"
FLAGS PRE
INDEX 00 07:52:67
FILE "04 - Theme From ''Proof Of The Man''.wav" WAVE
INDEX 01 00:00:00
TRACK 05 AUDIO
TITLE "Ubu-Suku"
PERFORMER "Archie Shepp - Dollar Brand"
FLAGS PRE
INDEX 00 08:15:02
FILE "05 - Ubu-Suku.wav" WAVE
INDEX 01 00:00:00
TRACK 06 AUDIO
TITLE "Moniebah"
PERFORMER "Archie Shepp - Dollar Brand"
FLAGS PRE
INDEX 00 04:31:25
FILE "06 - Moniebah.wav" WAVE
INDEX 01 00:00:00
Any questions -> support@pro-jazz.com. По всем вопросам пишите -> support@pro-jazz.com
03:54
271
Нет комментариев. Ваш будет первым!