Вы используете незарегистрированную версию компонента "Вкладки"!

Поиск

(avant-garde jazz) Rich West - Bedouin Hornbook - 2004, FLAC (image+.cue), lossless

(avant-garde jazz) Rich West - Bedouin Hornbook - 2004, FLAC (image+.cue), lossless
Треклист:
Rich West / Bedouin Hornbook
Жанр: avant-garde jazz
Страна-производитель диска: USA
Год издания диска: 2004
Издатель (лейбл): pfMENTUM
Номер по каталогу: CD016
Страна: USA
Аудиокодек: FLAC (*.flac)
Тип рипа: image+.cue
Битрейт аудио: lossless
Продолжительность: 68:16
Источник (релизер): собственный рип
Наличие сканов в содержимом раздачи: да
Треклист:
1. bugge
2. tribilogy
3. twang
4. tread
5. friends of the vacuum
6. tychai i and 2
7. curly
8. furciffer
 
Лог создания рипа
Exact Audio Copy V0.99 prebeta 5 from 4. May 2009
EAC extraction logfile from 20. June 2011, 21:05
Rich West / Bedouin Hornboocl
Used drive : Optiarc DVD RW AD-7243S Adapter: 0 ID: 1
Read mode : Secure
Utilize accurate stream : Yes
Defeat audio cache : Yes
Make use of C2 pointers : No
Read offset correction : 48
Overread into Lead-In and Lead-Out : No
Fill up missing offset samples with silence : Yes
Delete leading and trailing silent blocks : No
Null samples used in CRC calculations : Yes
Used interface : Native Win32 interface for Win NT & 2000
Used output format : User Defined Encoder
Selected bitrate : 768 kBit/s
Quality : High
Add ID3 tag : No
Command line compressor : C:\Program Files\Exact Audio Copy\FLAC\FLAC.EXE
Additional command line options : -6 -V -T "ARTIST=%a" -T "TITLE=%t" -T "ALBUM=%g" -T "DATE=%y" -T "TRACKNUMBER=%n" -T "GENRE=%m" -T "COMMENT=%e" %s -o %d
TOC of the extracted CD
Track | Start | Length | Start sector | End sector
---------------------------------------------------------
1 | 0:00.00 | 11:20.37 | 0 | 51036
2 | 11:20.37 | 6:34.51 | 51037 | 80637
3 | 17:55.13 | 14:41.63 | 80638 | 146775
4 | 32:37.01 | 8:22.40 | 146776 | 184465
5 | 40:59.41 | 9:00.39 | 184466 | 225004
6 | 50:00.05 | 7:25.54 | 225005 | 258433
7 | 57:25.59 | 4:10.06 | 258434 | 277189
8 | 61:35.65 | 6:44.37 | 277190 | 307526
Range status and errors
Selected range
Filename C:\Documents and Settings\S\Мои документы\Torrent раздача\Rich West - Bedouin Hornboocl.wav
Peak level 94.4 %
Range quality 100.0 %
Copy CRC 4BB020EB
Copy OK
No errors occurred
AccurateRip summary
Track 1 not present in database
Track 2 not present in database
Track 3 not present in database
Track 4 not present in database
Track 5 not present in database
Track 6 not present in database
Track 7 not present in database
Track 8 not present in database
None of the tracks are present in the AccurateRip database
End of status report
 
Содержание индексной карты (.CUE)
REM GENRE Avantgarde
REM DATE 2004
REM DISCID 76100408
REM COMMENT "ExactAudioCopy v0.99pb5"
PERFORMER "Rich West"
TITLE "Bedouin Hornboocl"
FILE "Rich West - Bedouin Hornboocl.flac" WAVE
TRACK 01 AUDIO
TITLE "Bugge"
PERFORMER "Rich West"
INDEX 01 00:00:00
TRACK 02 AUDIO
TITLE "Trbology"
PERFORMER "Rich West"
INDEX 00 11:16:37
INDEX 01 11:20:37
TRACK 03 AUDIO
TITLE "Twang"
PERFORMER "Rich West"
INDEX 00 17:52:13
INDEX 01 17:55:13
TRACK 04 AUDIO
TITLE "Tread"
PERFORMER "Rich West"
INDEX 00 32:33:56
INDEX 01 32:37:01
TRACK 05 AUDIO
TITLE "Friends of the Vacuum"
PERFORMER "Rich West"
INDEX 00 40:56:41
INDEX 01 40:59:41
TRACK 06 AUDIO
TITLE "Tychai I and 2"
PERFORMER "Rich West"
INDEX 00 49:57:05
INDEX 01 50:00:05
TRACK 07 AUDIO
TITLE "Curly"
PERFORMER "Rich West"
INDEX 00 57:22:19
INDEX 01 57:25:59
TRACK 08 AUDIO
TITLE "Furcifer"
PERFORMER "Rich West"
INDEX 00 61:33:10
INDEX 01 61:35:65
 
Состав
Rich West, drums, composer, leader
Scot Ray, tuba, didjeridoo
Chris Heenan, bass clarinet, alto saxophone
Bruce Friedman, trumpet
Jeremy Drake, electric guitar
Другие раздачи
http://rutracker.org/forum/search.php?uid=17163016
По всем вопросам пишите личное сообщение пользователю M0p94ok.
16:20
185
Нет комментариев. Ваш будет первым!