Вы используете незарегистрированную версию компонента "Вкладки"!

Поиск

(Avant-Garde Jazz, Post-Bop) [CD] Eric Dolphy - Out To Lunch (1964) - 2013 {Japan SHM-CD Blue Note 24-192 Remaster}, FLAC (tracks+.cue), lossless

(Avant-Garde Jazz, Post-Bop) [CD] Eric Dolphy - Out To Lunch (1964) - 2013 {Japan SHM-CD Blue Note 24-192 Remaster}, FLAC (tracks+.cue), lossless
Треклист:
Eric Dolphy - Out To Lunch (1964) Жанр: Avant-Garde Jazz, Post-Bop
Носитель: CD
Страна-производитель диска (релиза): Japan
Год издания: 2013
Издатель (лейбл): Universal Japan/Blue Note
Номер по каталогу: TYCJ-81013
Аудиокодек: FLAC (*.flac)
Тип рипа: tracks+.cue
Битрейт аудио: lossless
Продолжительность: 56:29
Rip by ruskaval
Наличие сканов в содержимом раздачи: да
Треклист:
01. Hat And Beard (8:24)
02. Something Sweet, Something Tender (6:02)
03. Gazzellioni (7:18)
04. Out To Lunch (12:06)
05. Straight Up And Down (8:19)
06. Hat And Beard (alt. take) (bonus track) (8:37)
07. Something Sweet, Something Tender (alt. take) (bonus track) (5:44)
Personnel:
Eric Dolphy - as, fl, bcl
Freddie Hubbard - tp
Bobby Hutcherson - vib
Richard Davis - b
Tony Williams - d
Rec.: Van Gelder Studio, Englewood Cliffs, NJ, February 25, 1964.
 
 
Лог создания рипа
Exact Audio Copy V1.0 beta 3 from 29. August 2011
EAC extraction logfile from 10. December 2014, 12:17
Eric Dolphy / Out To Lunch
Used drive : ATAPI iHAS124 B Adapter: 2 ID: 1
Read mode : Secure
Utilize accurate stream : Yes
Defeat audio cache : Yes
Make use of C2 pointers : No
Read offset correction : 6
Overread into Lead-In and Lead-Out : No
Fill up missing offset samples with silence : Yes
Delete leading and trailing silent blocks : No
Null samples used in CRC calculations : Yes
Used interface : Native Win32 interface for Win NT & 2000
Gap handling : Appended to previous track
Used output format : User Defined Encoder
Selected bitrate : 1024 kBit/s
Quality : High
Add ID3 tag : No
Command line compressor : C:\Program Files (x86)\FLAC Frontend\tools\flac.exe
Additional command line options : -8 -V -T "ARTIST=%artist%" -T "TITLE=%title%" -T "ALBUM=%albumtitle%" -T "DATE=%year%" -T "TRACKNUMBER=%tracknr%" -T "TOTALTRACKS=%numtracks%" -T "GENRE=%genre%" -T "ALBUMARTIST=%albumartist%" -T "ALBUM ARTIST=%albumartist%" -T "COMMENT=EAC Secure Mode, Test & Copy, AccurateRip, FLAC -8" %source%
TOC of the extracted CD
Track | Start | Length | Start sector | End sector
---------------------------------------------------------
1 | 0:00.00 | 8:23.41 | 0 | 37765
2 | 8:23.41 | 6:01.57 | 37766 | 64897
3 | 14:25.23 | 7:17.67 | 64898 | 97739
4 | 21:43.15 | 12:05.55 | 97740 | 152169
5 | 33:48.70 | 8:18.55 | 152170 | 189574
6 | 42:07.50 | 8:37.23 | 189575 | 228372
7 | 50:44.73 | 5:44.30 | 228373 | 254202
Track 1
Filename C:\Eric Dolphy - Out To Lunch (1964) {2013 Japan SHM-CD Blue Note 24-192 Remaster}\01 - Hat And Beard.wav
Pre-gap length 0:00:02.00
Peak level 100.0 %
Extraction speed 3.9 X
Track quality 100.0 %
Test CRC 0004D65E
Copy CRC 0004D65E
Accurately ripped (confidence 2) [B4B3A732] (AR v2)
Copy OK
Track 2
Filename C:\Eric Dolphy - Out To Lunch (1964) {2013 Japan SHM-CD Blue Note 24-192 Remaster}\02 - Something Sweet, Something Tender.wav
Pre-gap length 0:00:02.18
Peak level 98.0 %
Extraction speed 4.5 X
Track quality 100.0 %
Test CRC 70967DA0
Copy CRC 70967DA0
Accurately ripped (confidence 2) [5246BE61] (AR v2)
Copy OK
Track 3
Filename C:\Eric Dolphy - Out To Lunch (1964) {2013 Japan SHM-CD Blue Note 24-192 Remaster}\03 - Gazzellioni.wav
Pre-gap length 0:00:02.18
Peak level 100.0 %
Extraction speed 4.5 X
Track quality 99.9 %
Test CRC 89ACA4D4
Copy CRC 89ACA4D4
Accurately ripped (confidence 2) [502B1A63] (AR v2)
Copy OK
Track 4
Filename C:\Eric Dolphy - Out To Lunch (1964) {2013 Japan SHM-CD Blue Note 24-192 Remaster}\04 - Out To Lunch.wav
Pre-gap length 0:00:02.54
Peak level 100.0 %
Extraction speed 5.4 X
Track quality 99.9 %
Test CRC 953E12B9
Copy CRC 953E12B9
Accurately ripped (confidence 2) [907440C7] (AR v2)
Copy OK
Track 5
Filename C:\Eric Dolphy - Out To Lunch (1964) {2013 Japan SHM-CD Blue Note 24-192 Remaster}\05 - Straight Up And Down.wav
Pre-gap length 0:00:02.19
Peak level 100.0 %
Extraction speed 6.4 X
Track quality 100.0 %
Test CRC 62BD5990
Copy CRC 62BD5990
Accurately ripped (confidence 2) [1E747E05] (AR v2)
Copy OK
Track 6
Filename C:\Eric Dolphy - Out To Lunch (1964) {2013 Japan SHM-CD Blue Note 24-192 Remaster}\06 - Hat And Beard (alt. take) (bonus track).wav
Pre-gap length 0:00:02.29
Peak level 98.5 %
Extraction speed 7.0 X
Track quality 100.0 %
Test CRC 0BA4E9C9
Copy CRC 0BA4E9C9
Accurately ripped (confidence 2) [E0584FAF] (AR v2)
Copy OK
Track 7
Filename C:\Eric Dolphy - Out To Lunch (1964) {2013 Japan SHM-CD Blue Note 24-192 Remaster}\07 - Something Sweet, Something Tender (alt. take) (bonus track).wav
Pre-gap length 0:00:02.43
Peak level 97.5 %
Extraction speed 7.1 X
Track quality 100.0 %
Test CRC BF097402
Copy CRC BF097402
Accurately ripped (confidence 2) [6DA78D4E] (AR v2)
Copy OK
All tracks accurately ripped
No errors occurred
End of status report
==== Log checksum D4C05DAE1F73F312FCDF17C0EEAAC24EF96196325FB17BFBC25789CDEF482B78 ====
 
Содержание индексной карты (.CUE)
REM GENRE Jazz
REM DATE 1964
REM DISCID 4E0D3D07
REM COMMENT "ExactAudioCopy v1.0b3"
PERFORMER "Eric Dolphy"
TITLE "Out To Lunch"
FILE "01 - Hat And Beard.wav" WAVE
TRACK 01 AUDIO
TITLE "Hat And Beard"
PERFORMER "Eric Dolphy"
INDEX 01 00:00:00
TRACK 02 AUDIO
TITLE "Something Sweet, Something Tender"
PERFORMER "Eric Dolphy"
INDEX 00 08:21:23
FILE "02 - Something Sweet, Something Tender.wav" WAVE
INDEX 01 00:00:00
TRACK 03 AUDIO
TITLE "Gazzellioni"
PERFORMER "Eric Dolphy"
INDEX 00 05:59:39
FILE "03 - Gazzellioni.wav" WAVE
INDEX 01 00:00:00
TRACK 04 AUDIO
TITLE "Out To Lunch"
PERFORMER "Eric Dolphy"
INDEX 00 07:15:13
FILE "04 - Out To Lunch.wav" WAVE
INDEX 01 00:00:00
TRACK 05 AUDIO
TITLE "Straight Up And Down"
PERFORMER "Eric Dolphy"
INDEX 00 12:03:36
FILE "05 - Straight Up And Down.wav" WAVE
INDEX 01 00:00:00
TRACK 06 AUDIO
TITLE "Hat And Beard (alt. take) (bonus track)"
PERFORMER "Eric Dolphy"
INDEX 00 08:16:26
FILE "06 - Hat And Beard (alt. take) (bonus track).wav" WAVE
INDEX 01 00:00:00
TRACK 07 AUDIO
TITLE "Something Sweet, Something Tender (alt. take) (bonus track)"
PERFORMER "Eric Dolphy"
INDEX 00 08:34:55
FILE "07 - Something Sweet, Something Tender (alt. take) (bonus track).wav" WAVE
INDEX 01 00:00:00
По всем вопросам пишите личное сообщение пользователю M0p94ok.
07:25
205
Нет комментариев. Ваш будет первым!