Вы используете незарегистрированную версию компонента "Вкладки"!

Поиск

(Avant-Garde Jazz, Nine Winds) [CD] The Christopher Adler Trio (w/ Alan Lechusza & Vikas Srivastava) - Transcontinental - 2001, FLAC (tracks+.cue), lossless

(Avant-Garde Jazz, Nine Winds) [CD] The Christopher Adler Trio (w/ Alan Lechusza & Vikas Srivastava) - Transcontinental - 2001, FLAC (tracks+.cue), lossless
Треклист:
The Christopher Adler Trio / Transcontinental
Жанр: Avant-Garde Jazz, Nine Winds
Носитель: CD
Страна-производитель диска: US
Год издания: 2001
Издатель (лейбл): 9 Winds Records
Номер по каталогу: NWCD0262
Страна: US
Аудиокодек: FLAC (*.flac)
Тип рипа: tracks+.cue
Битрейт аудио: lossless
Продолжительность: 61:06
Источник (релизер): свой фирменный диск
Наличие сканов в содержимом раздачи:
Треклист:
1. Aloft 26:32
2. Akash 16:42
3. Transcontinental 17:49
 
Лог создания рипа
Exact Audio Copy V1.0 beta 3 from 29. August 2011
EAC extraction logfile from 9. June 2014, 20:41
The Christopher Adler Trio / Transcontinental
Used drive : PIONEER DVD-RW DVR-115D Adapter: 0 ID: 0
Read mode : Secure
Utilize accurate stream : Yes
Defeat audio cache : Yes
Make use of C2 pointers : No
Read offset correction : 48
Overread into Lead-In and Lead-Out : No
Fill up missing offset samples with silence : Yes
Delete leading and trailing silent blocks : No
Null samples used in CRC calculations : Yes
Used interface : Installed external ASPI interface
Gap handling : Appended to previous track
Used output format : User Defined Encoder
Selected bitrate : 896 kBit/s
Quality : High
Add ID3 tag : No
Command line compressor : C:\Program Files\Exact Audio Copy\FLAC\FLAC.EXE
Additional command line options : -6 -V -T "ARTIST=%artist%" -T "TITLE=%title%" -T "ALBUM=%albumtitle%" -T "DATE=%year%" -T "TRACKNUMBER=%tracknr%" -T "GENRE=%genre%" -T "COMMENT=%comment%" -T "BAND=%albuminterpret%" -T "COMPOSER=%composer%" %haslyrics%--tag-from-file=LYRICS="%lyricsfile%"%haslyrics% -T "DISCNUMBER=%cdnumber%" -T "TOTALDISCS=%totalcds%" -T "TOTALTRACKS=%numtracks%" %hascover%--picture="%coverfile%"%hascover% %source% -o %dest%
TOC of the extracted CD
Track | Start | Length | Start sector | End sector
---------------------------------------------------------
1 | 0:00.00 | 26:32.02 | 0 | 119401
2 | 26:32.02 | 16:44.46 | 119402 | 194747
3 | 43:16.48 | 17:49.40 | 194748 | 274962
Track 1
Filename D:\zzz\01 - Aloft.wav
Pre-gap length 0:00:02.00
Peak level 100.0 %
Extraction speed 6.2 X
Track quality 100.0 %
Test CRC 8C5776DD
Copy CRC 8C5776DD
Accurately ripped (confidence 1) [1AD3B06F] (AR v1)
Copy OK
Track 2
Filename D:\zzz\02 - Akash.wav
Pre-gap length 0:00:02.00
Peak level 62.9 %
Extraction speed 7.8 X
Track quality 99.9 %
Test CRC 0A6A36CC
Copy CRC 0A6A36CC
Accurately ripped (confidence 1) [28B1B042] (AR v1)
Copy OK
Track 3
Filename D:\zzz\03 - Transcontinental.wav
Pre-gap length 0:00:02.00
Peak level 100.0 %
Extraction speed 9.1 X
Track quality 100.0 %
Test CRC BBB8E2D5
Copy CRC BBB8E2D5
Accurately ripped (confidence 1) [A60A8CC8] (AR v1)
Copy OK
All tracks accurately ripped
No errors occurred
End of status report
==== Log checksum 3CB271E160B510158157934D91F5F4A0778824981E9DB6220C5004A23693A9EC ====
 
Содержание индексной карты (.CUE)
REM GENRE "Avant-Garde Jazz"
REM DATE 2001
REM DISCID 2D0E5203
REM COMMENT "ExactAudioCopy v1.0b3"
PERFORMER "The Christopher Adler Trio"
TITLE "Transcontinental"
FILE "01 - Aloft.wav" WAVE
TRACK 01 AUDIO
TITLE "Aloft"
PERFORMER "The Christopher Adler Trio"
INDEX 01 00:00:00
TRACK 02 AUDIO
TITLE "Akash"
PERFORMER "The Christopher Adler Trio"
INDEX 00 26:30:02
FILE "02 - Akash.wav" WAVE
INDEX 01 00:00:00
TRACK 03 AUDIO
TITLE "Transcontinental"
PERFORMER "The Christopher Adler Trio"
INDEX 00 16:42:46
FILE "03 - Transcontinental.wav" WAVE
INDEX 01 00:00:00
 
Лог проверки качества
d:\>d:\aucdtect -d/-m0 d:\zzz\*.wav
auCDtect: CD records authenticity detector, version 0.8.2
Copyright (c) 2004 Oleg Berngardt. All rights reserved.
Copyright (c) 2004 Alexander Djourik. All rights reserved.
------------------------------------------------------------
Processing file: [01. Aloft.wav]
------------------------------------------------------------
This track looks like CDDA with probability 100%
------------------------------------------------------------
Processing file: [02. Akash.wav]
------------------------------------------------------------
This track looks like CDDA with probability 100%
------------------------------------------------------------
Processing file: [03. Transcontinental.wav]
------------------------------------------------------------
This track looks like CDDA with probability 100%
------------------------------------------------------------
Final Conclusion:
------------------------------------------------------------
These tracks looks like CDDA with probability 100%
Доп. информация:
 
Album Info & Review
All compositions by Christopher Adler, Alan Lechusza and Vikas Srivastava
Recorded January 27, 2001 at Los Angeles Harbor College
A Lira Productions event
Previously released as Live In Los Angeles, Black Phone Records BPR CD0003, 2001
Recorded and mastered by Christopher Adler
Design and layout by Christopher Adler, the Trio, and David W Medina
Transmission line photographs by Christopher Adler
Trio photographs at Galoka by Preet Srivastava
To depart from one's own language of origin, to be able to acknowledge that 'the source moves about', to fare like a foreigner in this language, and to return to it via its travelling fragments, is also to learn how to be silent and how to speak again, differently. - Trinh T. Minh-Ha
"... often these free improvisations are so closely knit between the trio's voices that they give the impression of having sprung from compositions. "Transcontinental" is a rewarding release from a strong improvising trio that includes some truly bright moments." — Craig Nixon, JumpArts Journal
 
Состав
Alan Lechusza: woodwinds
Christopher Adler: piano
Vikas Srivastava: drums
По всем вопросам пишите личное сообщение пользователю M0p94ok.
03:17
160
Нет комментариев. Ваш будет первым!