Вы используете незарегистрированную версию компонента "Вкладки"!

Поиск

(Avant-Garde Jazz, Free Improvisation, FMR) [CD] The Glasgow Improvisers Orchestra with Evan Parker - Munich And Glasgow - 2004, FLAC (tracks+.cue), lossless

(Avant-Garde Jazz, Free Improvisation, FMR) [CD] The Glasgow Improvisers Orchestra with Evan Parker - Munich And Glasgow - 2004, FLAC (tracks+.cue), lossless
Треклист:
The Glasgow Improvisers Orchestra with Evan Parker / Munich And Glasgow
Жанр: Avant-Garde Jazz, Free Improvisation, FMR
Носитель: CD
Страна-производитель диска: UK
Год издания: 2004
Издатель (лейбл): FMR Records
Номер по каталогу: FMRCD139-i0204
Страна: UK
Аудиокодек: FLAC (*.flac)
Тип рипа: tracks+.cue
Битрейт аудио: lossless
Продолжительность: 54:54
Источник (релизер): свой фирменный диск
Наличие сканов в содержимом раздачи:
Треклист:
1. Right 12:57
2. Dissenting 7:42
3. Das Grosse Spiel 17:52
4. Free Glasgow Epilogue 3:13
5. Free Munich 10:04
6. Free Munich Epilogue 3:30
 
Лог создания рипа
Exact Audio Copy V1.0 beta 3 from 29. August 2011
EAC extraction logfile from 18. May 2014, 14:29
The Glasgow Improvisers Orchestra with Evan Parker / Munich And Glasgow
Used drive : PIONEER DVD-RW DVR-115D Adapter: 0 ID: 0
Read mode : Secure
Utilize accurate stream : Yes
Defeat audio cache : Yes
Make use of C2 pointers : No
Read offset correction : 48
Overread into Lead-In and Lead-Out : No
Fill up missing offset samples with silence : Yes
Delete leading and trailing silent blocks : No
Null samples used in CRC calculations : Yes
Used interface : Installed external ASPI interface
Gap handling : Appended to previous track
Used output format : User Defined Encoder
Selected bitrate : 896 kBit/s
Quality : High
Add ID3 tag : No
Command line compressor : C:\Program Files\Exact Audio Copy\FLAC\FLAC.EXE
Additional command line options : -6 -V -T "ARTIST=%artist%" -T "TITLE=%title%" -T "ALBUM=%albumtitle%" -T "DATE=%year%" -T "TRACKNUMBER=%tracknr%" -T "GENRE=%genre%" -T "COMMENT=%comment%" -T "BAND=%albuminterpret%" -T "COMPOSER=%composer%" %haslyrics%--tag-from-file=LYRICS="%lyricsfile%"%haslyrics% -T "DISCNUMBER=%cdnumber%" -T "TOTALDISCS=%totalcds%" -T "TOTALTRACKS=%numtracks%" %hascover%--picture="%coverfile%"%hascover% %source% -o %dest%
TOC of the extracted CD
Track | Start | Length | Start sector | End sector
---------------------------------------------------------
1 | 0:00.00 | 12:30.27 | 0 | 56276
2 | 12:30.27 | 7:42.34 | 56277 | 90960
3 | 20:12.61 | 17:54.13 | 90961 | 171523
4 | 38:06.74 | 3:13.38 | 171524 | 186036
5 | 41:20.37 | 10:01.61 | 186037 | 231172
6 | 51:22.23 | 3:32.01 | 231173 | 247073
Track 1
Filename D:\zzz\01 - Right.wav
Pre-gap length 0:00:02.00
Peak level 99.8 %
Extraction speed 5.5 X
Track quality 100.0 %
Test CRC 1C3B8ABB
Copy CRC 1C3B8ABB
Accurately ripped (confidence 1) [37666E88] (AR v2)
Copy OK
Track 2
Filename D:\zzz\02 - Dissenting.wav
Pre-gap length 0:00:01.39
Peak level 99.8 %
Extraction speed 6.0 X
Track quality 99.9 %
Test CRC 0B1577FA
Copy CRC 0B1577FA
Accurately ripped (confidence 1) [D1AEF7D7] (AR v2)
Copy OK
Track 3
Filename D:\zzz\03 - Das Grosse Spiel.wav
Pre-gap length 0:00:01.41
Peak level 99.8 %
Extraction speed 7.7 X
Track quality 100.0 %
Test CRC 79096DF2
Copy CRC 79096DF2
Accurately ripped (confidence 1) [6345D8EA] (AR v2)
Copy OK
Track 4
Filename D:\zzz\04 - Free Glasgow Epilogue.wav
Pre-gap length 0:00:03.59
Peak level 99.8 %
Extraction speed 6.3 X
Track quality 99.9 %
Test CRC 16374F5E
Copy CRC 16374F5E
Accurately ripped (confidence 1) [CB17E97E] (AR v2)
Copy OK
Track 5
Filename D:\zzz\05 - Free Munich.wav
Pre-gap length 0:00:01.33
Peak level 99.8 %
Extraction speed 8.6 X
Track quality 100.0 %
Test CRC ED60DDF4
Copy CRC ED60DDF4
Accurately ripped (confidence 1) [BA84FC2F] (AR v2)
Copy OK
Track 6
Filename D:\zzz\06 - Free Munich Epilogue.wav
Peak level 99.8 %
Extraction speed 8.1 X
Track quality 100.0 %
Test CRC 89CF3B7E
Copy CRC 89CF3B7E
Accurately ripped (confidence 1) [7DBC7742] (AR v2)
Copy OK
All tracks accurately ripped
No errors occurred
End of status report
==== Log checksum 1960C3CAEECEC7ED58BD429361C4B804E1672AA763C2152A258FED87014FCA31 ====
 
Содержание индексной карты (.CUE)
REM GENRE "Avant-Garde Jazz"
REM DATE 2004
REM DISCID 4B0CDE06
REM COMMENT "ExactAudioCopy v1.0b3"
PERFORMER "The Glasgow Improvisers Orchestra with Evan Parker"
TITLE "Munich And Glasgow"
FILE "01 - Right.wav" WAVE
TRACK 01 AUDIO
TITLE "Right"
PERFORMER "The Glasgow Improvisers Orchestra with Evan Parker"
INDEX 01 00:00:00
TRACK 02 AUDIO
TITLE "Dissenting"
PERFORMER "The Glasgow Improvisers Orchestra with Evan Parker"
INDEX 00 12:28:63
FILE "02 - Dissenting.wav" WAVE
INDEX 01 00:00:00
TRACK 03 AUDIO
TITLE "Das Grosse Spiel"
PERFORMER "The Glasgow Improvisers Orchestra with Evan Parker"
INDEX 00 07:40:68
FILE "03 - Das Grosse Spiel.wav" WAVE
INDEX 01 00:00:00
TRACK 04 AUDIO
TITLE "Free Glasgow Epilogue"
PERFORMER "The Glasgow Improvisers Orchestra with Evan Parker"
INDEX 00 17:50:29
FILE "04 - Free Glasgow Epilogue.wav" WAVE
INDEX 01 00:00:00
TRACK 05 AUDIO
TITLE "Free Munich"
PERFORMER "The Glasgow Improvisers Orchestra with Evan Parker"
INDEX 00 03:12:05
FILE "05 - Free Munich.wav" WAVE
INDEX 01 00:00:00
FILE "06 - Free Munich Epilogue.wav" WAVE
TRACK 06 AUDIO
TITLE "Free Munich Epilogue"
PERFORMER "The Glasgow Improvisers Orchestra with Evan Parker"
INDEX 01 00:00:00
 
Лог проверки качества
d:\>d:\aucdtect -d/-m0 d:\zzz\*.wav
auCDtect: CD records authenticity detector, version 0.8.2
Copyright (c) 2004 Oleg Berngardt. All rights reserved.
Copyright (c) 2004 Alexander Djourik. All rights reserved.
------------------------------------------------------------
Processing file: [01. Right.wav]
------------------------------------------------------------
This track looks like CDDA with probability 100%
------------------------------------------------------------
Processing file: [02. Dissenting.wav]
------------------------------------------------------------
This track looks like CDDA with probability 100%
------------------------------------------------------------
Processing file: [03. Das Grosse Spiel.wav]
------------------------------------------------------------
This track looks like CDDA with probability 100%
------------------------------------------------------------
Processing file: [04. Free Glasgow Epilogue.wav]
------------------------------------------------------------
This track looks like CDDA with probability 100%
------------------------------------------------------------
Processing file: [05. Free Munich.wav]
------------------------------------------------------------
This track looks like CDDA with probability 100%
------------------------------------------------------------
Processing file: [06. Free Munich Epilogue.wav]
------------------------------------------------------------
This track looks like CDDA with probability 100%
------------------------------------------------------------
Final Conclusion:
------------------------------------------------------------
These tracks looks like CDDA with probability 100%
Доп. информация:
 
Album Info
(M. Studdert-Kennedy) - 2
(R. MacDonald) - 3
Tracks 2 & 4 recorded at The Centre for Contemporary Arts, Glasgow, December 13th 2003.
Recording engineer: Kenny MacLeod
Tracks 1,3,5 and 6 recorded at The Einstein, Munich, September 13th 2003
Executive producer in Munich: Christoph Hofig
Assistants: Patricia Hannig, Martin Langner, Johanna Baur
Recording engineer: Wolfgang Obrecht, Tonstudio RichArt, Munich
Edited and mastered by Nick Fells, DP Johnson and Raymond MacDonald at Craigmont Studios, Glasgow, January 19th 2003
Produced for FMR by Trevor Taylor
Artwork by Ewan Rigg
Photographs taken by Graeme Wilson in Munich and Glasgow, 2003
 
Состав
Kenneth Broom: tenor sax
Stuart Brown: drums (1,3,5,6)
George Burt: guitar
Matthew Cairns: cornet
Richard Craig: flute
Tom Crossley: guitar (2,4)
Neil Davidson: guitar
Peter Dowling: alto sax
Nick Fells: shakuhachi
Robert Henderson: trumpet (2,4)
Giles Lamb: piano (1,3,5,6)
George Lyle: double bass
Raymond MacDonald: alto & soprano sax
Una MacGlone: double bass (2,4)
Alexander Neilson: drums
Peter Nicholson: cello (2,4)
Daniel Padden: piano (2,4), clarinet & percussion (all tracks)
Evan Parker: tenor & soprano sax (1,3,5,6)
Christoph Reiserer: soprano sax (1,3,5,6)
Emma Roche: flute
Matthew Studdert-Kennedy: flute
Graeme Wilson: tenor sax (1,3,5,6)
По всем вопросам пишите личное сообщение пользователю M0p94ok.
03:17
153
Нет комментариев. Ваш будет первым!