Вы используете незарегистрированную версию компонента "Вкладки"!

Поиск

(Avant-Garde Jazz, Nine Winds) [CD] Rick Helzer & Vinny Golia - Fancy Meeting You Here - 2004, FLAC (tracks+.cue), lossless

(Avant-Garde Jazz, Nine Winds) [CD] Rick Helzer & Vinny Golia - Fancy Meeting You Here - 2004, FLAC (tracks+.cue), lossless
Треклист:
Rick Helzer & Vinny Golia / Fancy Meeting You Here
Жанр: Avant-Garde Jazz, Nine Winds
Носитель: CD
Страна-производитель диска: US
Год издания: 2004
Издатель (лейбл): 9 Winds Records
Номер по каталогу: NWCD0224
Страна: US
Аудиокодек: FLAC (*.flac)
Тип рипа: tracks+.cue
Битрейт аудио: lossless
Продолжительность: 73:48
Источник (релизер): свой фирменный диск
Наличие сканов в содержимом раздачи:
Треклист:
1. You Tell 'Em Kwai-Chung 3:16
2. Are We There Yet? 12:05
3. I Just Get Dizzy Watching You.... 3:39
4. 1st In The Fast Walking Julius Trilogy 8:01
5. All Upset About The Kirwood Dirby 4:59
6. 1st In The Fast Walking Julius Trilogy (Part 2) 4:45
7. The Insidious Tortures Of Brian Henderson 4:59
8. Silent Voices 6:02
9. Let's All Sing The Arnold Griffith Song 7:02
10. Sub Code (For 5 Soprillo Saxophones) 1:16
11. Blue Sphere 4:27
12. Green On Purple 8:28
13. Blue Sphere (Reprise) 8:28
 
Лог создания рипа
Exact Audio Copy V1.0 beta 3 from 29. August 2011
EAC extraction logfile from 18. March 2014, 18:43
Rick Helzer & Vinny Golia / Fancy Meeting You Here
Used drive : PIONEER DVD-RW DVR-115D Adapter: 0 ID: 0
Read mode : Secure
Utilize accurate stream : Yes
Defeat audio cache : Yes
Make use of C2 pointers : No
Read offset correction : 48
Overread into Lead-In and Lead-Out : No
Fill up missing offset samples with silence : Yes
Delete leading and trailing silent blocks : No
Null samples used in CRC calculations : Yes
Used interface : Installed external ASPI interface
Gap handling : Appended to previous track
Used output format : User Defined Encoder
Selected bitrate : 896 kBit/s
Quality : High
Add ID3 tag : No
Command line compressor : C:\Program Files\Exact Audio Copy\FLAC\FLAC.EXE
Additional command line options : -6 -V -T "ARTIST=%artist%" -T "TITLE=%title%" -T "ALBUM=%albumtitle%" -T "DATE=%year%" -T "TRACKNUMBER=%tracknr%" -T "GENRE=%genre%" -T "COMMENT=%comment%" -T "BAND=%albuminterpret%" -T "COMPOSER=%composer%" %haslyrics%--tag-from-file=LYRICS="%lyricsfile%"%haslyrics% -T "DISCNUMBER=%cdnumber%" -T "TOTALDISCS=%totalcds%" -T "TOTALTRACKS=%numtracks%" %hascover%--picture="%coverfile%"%hascover% %source% -o %dest%
TOC of the extracted CD
Track | Start | Length | Start sector | End sector
---------------------------------------------------------
1 | 0:00.00 | 3:19.08 | 0 | 14932
2 | 3:19.08 | 12:07.72 | 14933 | 69529
3 | 15:27.05 | 3:42.12 | 69530 | 86191
4 | 19:09.17 | 8:01.00 | 86192 | 122266
5 | 27:10.17 | 4:59.21 | 122267 | 144712
6 | 32:09.38 | 4:47.64 | 144713 | 166301
7 | 36:57.27 | 4:51.13 | 166302 | 188139
8 | 41:48.40 | 6:04.72 | 188140 | 215511
9 | 47:53.37 | 7:04.46 | 215512 | 247357
10 | 54:58.08 | 1:18.54 | 247358 | 253261
11 | 56:16.62 | 4:29.34 | 253262 | 273470
12 | 60:46.21 | 8:32.08 | 273471 | 311878
13 | 69:18.29 | 4:29.58 | 311879 | 332111
Track 1
Filename D:\zzz\01 - You Tell 'Em Kwai-Chung.wav
Pre-gap length 0:00:02.00
Peak level 96.6 %
Extraction speed 4.5 X
Track quality 100.0 %
Test CRC C9144468
Copy CRC C9144468
Cannot be verified as accurate (confidence 1) [4C244FDD], AccurateRip returned [F87D7CEE] (AR v2)
Copy OK
Track 2
Filename D:\zzz\02 - Are We There Yet.wav
Pre-gap length 0:00:03.00
Peak level 96.6 %
Extraction speed 5.9 X
Track quality 100.0 %
Test CRC F028BA3A
Copy CRC F028BA3A
Cannot be verified as accurate (confidence 1) [39A0B53A], AccurateRip returned [1930658D] (AR v2)
Copy OK
Track 3
Filename D:\zzz\03 - I Just Get Dizzy Watching You.....wav
Pre-gap length 0:00:03.00
Peak level 96.6 %
Extraction speed 6.0 X
Track quality 100.0 %
Test CRC F3C3E908
Copy CRC F3C3E908
Cannot be verified as accurate (confidence 1) [BD5550C6], AccurateRip returned [95A6853D] (AR v2)
Copy OK
Track 4
Filename D:\zzz\04 - 1st In The Fast Walking Julius Trilogy.wav
Pre-gap length 0:00:03.00
Peak level 96.6 %
Extraction speed 7.0 X
Track quality 100.0 %
Test CRC EC2DBB5C
Copy CRC EC2DBB5C
Cannot be verified as accurate (confidence 1) [6A54E667], AccurateRip returned [0CEC37EE] (AR v2)
Copy OK
Track 5
Filename D:\zzz\05 - All Upset About The Kirwood Dirby.wav
Peak level 96.6 %
Extraction speed 7.2 X
Track quality 100.0 %
Test CRC C1AD3CCA
Copy CRC C1AD3CCA
Cannot be verified as accurate (confidence 1) [36A8D5D2], AccurateRip returned [C8C5C4FF] (AR v2)
Copy OK
Track 6
Filename D:\zzz\06 - 1st In The Fast Walking Julius Trilogy (Part 2).wav
Peak level 96.6 %
Extraction speed 6.7 X
Track quality 99.9 %
Test CRC 9DFAB859
Copy CRC 9DFAB859
Cannot be verified as accurate (confidence 1) [13DF4E9A], AccurateRip returned [148D70A7] (AR v2)
Copy OK
Track 7
Filename D:\zzz\07 - The Insidious Tortures Of Brian Henderson.wav
Pre-gap length 0:00:03.00
Peak level 96.6 %
Extraction speed 7.0 X
Track quality 99.9 %
Test CRC 95A03E14
Copy CRC 95A03E14
Cannot be verified as accurate (confidence 1) [9A001DAB], AccurateRip returned [734C1034] (AR v2)
Copy OK
Track 8
Filename D:\zzz\08 - Silent Voices.wav
Pre-gap length 0:00:03.00
Peak level 96.6 %
Extraction speed 8.2 X
Track quality 100.0 %
Test CRC B671FF4F
Copy CRC B671FF4F
Cannot be verified as accurate (confidence 1) [F852CE32], AccurateRip returned [A63FA8C0] (AR v2)
Copy OK
Track 9
Filename D:\zzz\09 - Let's All Sing The Arnold Griffith Song.wav
Pre-gap length 0:00:03.00
Peak level 96.6 %
Extraction speed 8.1 X
Track quality 99.9 %
Test CRC 56D95725
Copy CRC 56D95725
Cannot be verified as accurate (confidence 1) [80130814], AccurateRip returned [B41C6F48] (AR v2)
Copy OK
Track 10
Filename D:\zzz\10 - Sub Code (For 5 Soprillo Saxophones).wav
Pre-gap length 0:00:03.00
Peak level 96.6 %
Extraction speed 6.5 X
Track quality 100.0 %
Test CRC 0178A836
Copy CRC 0178A836
Cannot be verified as accurate (confidence 1) [EFC414A9], AccurateRip returned [D7275A84] (AR v2)
Copy OK
Track 11
Filename D:\zzz\11 - Blue Sphere.wav
Pre-gap length 0:00:03.00
Peak level 96.6 %
Extraction speed 8.7 X
Track quality 100.0 %
Test CRC 8AE08131
Copy CRC 8AE08131
Cannot be verified as accurate (confidence 1) [0105F2EE], AccurateRip returned [FBABE979] (AR v2)
Copy OK
Track 12
Filename D:\zzz\12 - Green On Purple.wav
Pre-gap length 0:00:03.00
Peak level 96.6 %
Extraction speed 9.5 X
Track quality 100.0 %
Test CRC 6C644D49
Copy CRC 6C644D49
Cannot be verified as accurate (confidence 1) [E4C871F8], AccurateRip returned [7EECAD7B] (AR v2)
Copy OK
Track 13
Filename D:\zzz\13 - Blue Sphere (Reprise).wav
Pre-gap length 0:00:03.00
Peak level 96.6 %
Extraction speed 1.0 X
Track quality 100.0 %
Test CRC DE2BE3BE
Copy CRC DE2BE3BE
Cannot be verified as accurate (confidence 1) [45EB5F34], AccurateRip returned [FFD747F2] (AR v2)
Copy OK
No tracks could be verified as accurate
You may have a different pressing from the one(s) in the database
No errors occurred
End of status report
==== Log checksum C15F7260C5A0598B4C92E3CAF548CBC9C57E646B25EE17614EC54C298C045766 ====
 
Содержание индексной карты (.CUE)
REM GENRE "Avant-Garde Jazz"
REM DATE 2004
REM DISCID A2114C0D
REM COMMENT "ExactAudioCopy v1.0b3"
PERFORMER "Rick Helzer & Vinny Golia"
TITLE "Fancy Meeting You Here"
FILE "01 - You Tell 'Em Kwai-Chung.wav" WAVE
TRACK 01 AUDIO
TITLE "You Tell 'Em Kwai-Chung"
PERFORMER "Rick Helzer & Vinny Golia"
INDEX 01 00:00:00
TRACK 02 AUDIO
TITLE "Are We There Yet?"
PERFORMER "Rick Helzer & Vinny Golia"
INDEX 00 03:16:08
FILE "02 - Are We There Yet.wav" WAVE
INDEX 01 00:00:00
TRACK 03 AUDIO
TITLE "I Just Get Dizzy Watching You...."
PERFORMER "Rick Helzer & Vinny Golia"
INDEX 00 12:04:72
FILE "03 - I Just Get Dizzy Watching You.....wav" WAVE
INDEX 01 00:00:00
TRACK 04 AUDIO
TITLE "1st In The Fast Walking Julius Trilogy"
PERFORMER "Rick Helzer & Vinny Golia"
INDEX 00 03:39:12
FILE "04 - 1st In The Fast Walking Julius Trilogy.wav" WAVE
INDEX 01 00:00:00
FILE "05 - All Upset About The Kirwood Dirby.wav" WAVE
TRACK 05 AUDIO
TITLE "All Upset About The Kirwood Dirby"
PERFORMER "Rick Helzer & Vinny Golia"
INDEX 01 00:00:00
FILE "06 - 1st In The Fast Walking Julius Trilogy (Part 2).wav" WAVE
TRACK 06 AUDIO
TITLE "1st In The Fast Walking Julius Trilogy (Part 2)"
PERFORMER "Rick Helzer & Vinny Golia"
INDEX 01 00:00:00
TRACK 07 AUDIO
TITLE "The Insidious Tortures Of Brian Henderson"
PERFORMER "Rick Helzer & Vinny Golia"
INDEX 00 04:44:64
FILE "07 - The Insidious Tortures Of Brian Henderson.wav" WAVE
INDEX 01 00:00:00
TRACK 08 AUDIO
TITLE "Silent Voices"
PERFORMER "Rick Helzer & Vinny Golia"
INDEX 00 04:48:13
FILE "08 - Silent Voices.wav" WAVE
INDEX 01 00:00:00
TRACK 09 AUDIO
TITLE "Let's All Sing The Arnold Griffith Song"
PERFORMER "Rick Helzer & Vinny Golia"
INDEX 00 06:01:72
FILE "09 - Let's All Sing The Arnold Griffith Song.wav" WAVE
INDEX 01 00:00:00
TRACK 10 AUDIO
TITLE "Sub Code (For 5 Soprillo Saxophones)"
PERFORMER "Rick Helzer & Vinny Golia"
INDEX 00 07:01:46
FILE "10 - Sub Code (For 5 Soprillo Saxophones).wav" WAVE
INDEX 01 00:00:00
TRACK 11 AUDIO
TITLE "Blue Sphere"
PERFORMER "Rick Helzer & Vinny Golia"
INDEX 00 01:15:54
FILE "11 - Blue Sphere.wav" WAVE
INDEX 01 00:00:00
TRACK 12 AUDIO
TITLE "Green On Purple"
PERFORMER "Rick Helzer & Vinny Golia"
INDEX 00 04:26:34
FILE "12 - Green On Purple.wav" WAVE
INDEX 01 00:00:00
TRACK 13 AUDIO
TITLE "Blue Sphere (Reprise)"
PERFORMER "Rick Helzer & Vinny Golia"
INDEX 00 08:29:08
FILE "13 - Blue Sphere (Reprise).wav" WAVE
INDEX 01 00:00:00
 
Лог проверки качества
d:\>d:\aucdtect -d/-m0 d:\zzz\*.wav
auCDtect: CD records authenticity detector, version 0.8.2
Copyright (c) 2004 Oleg Berngardt. All rights reserved.
Copyright (c) 2004 Alexander Djourik. All rights reserved.
------------------------------------------------------------
Processing file: [01. You Tell 'Em Kwai-Chung.wav]
------------------------------------------------------------
This track looks like CDDA with probability 99%
------------------------------------------------------------
Processing file: [02. Are We There Yet.wav]
------------------------------------------------------------
This track looks like CDDA with probability 100%
------------------------------------------------------------
Processing file: [03. I Just Get Dizzy Watching You.....wav]
------------------------------------------------------------
This track looks like CDDA with probability 100%
------------------------------------------------------------
Processing file: [04. 1st In The Fast Walking Julius Trilogy.wav]
------------------------------------------------------------
This track looks like CDDA with probability 100%
------------------------------------------------------------
Processing file: [05. All Upset About The Kirwood Dirby.wav]
------------------------------------------------------------
This track looks like CDDA with probability 100%
------------------------------------------------------------
Processing file: [06. 1st In The Fast Walking Julius Trilogy (Part 2).wav]
------------------------------------------------------------
This track looks like CDDA with probability 100%
------------------------------------------------------------
Processing file: [07. The Insidious Tortures Of Brian Henderson.wav]
------------------------------------------------------------
This track looks like CDDA with probability 100%
------------------------------------------------------------
Processing file: [08. Silent Voices.wav]
------------------------------------------------------------
This track looks like CDDA with probability 100%
------------------------------------------------------------
Processing file: [09. Let's All Sing The Arnold Griffith Song.wav]
------------------------------------------------------------
This track looks like CDDA with probability 100%
------------------------------------------------------------
Processing file: [10. Sub Code (For 5 Soprillo Saxophones).wav]
------------------------------------------------------------
This track looks like CDDA with probability 43%
------------------------------------------------------------
Processing file: [11. Blue Sphere.wav]
------------------------------------------------------------
This track looks like CDDA with probability 100%
------------------------------------------------------------
Processing file: [12. Green On Purple.wav]
------------------------------------------------------------
This track looks like CDDA with probability 100%
------------------------------------------------------------
Processing file: [13. Blue Sphere (Reprise).wav]
------------------------------------------------------------
This track looks like CDDA with probability 100%
------------------------------------------------------------
Final Conclusion:
------------------------------------------------------------
These tracks looks like CDDA with probability 100%
Доп. информация:
 
Album Info & AAJ Review
(Vinny Golia) - 4,6,10
(Rick Helzer) - 2,8,11,13
All other compositions Helzer/Golia
Vinny plays: soprano saxophone (1,12), tenor saxophone (2,8,9), bass saxophone (5,7), sopranino saxophone (4), saxello (6), soprillo saxophone (10), contrabass flute (3,11,13)
Recorded November 20, 2003
Edited and mixed November 21,30, 2003 & August 29, 2004, Newzone Studio, Los Angeles, CA
Wayne Peet, engineer
Design by Jeremy Drake: evvt.com
Fancy Meeting You Here matches reed regent and CalArts faculty member Vinny Golia with pianist and UCSD faculty member Rick Helzer for a collection of emotionally rich duets, featuring some heart-wrenching playing by Golia. The intimate clarity of the recordings allows Golia's considerable vocabulary of nuance full exposure.
"You Tell 'em Kwai Chung flies out of the gate with Helzer's staccato notes falling all around Golia's galloping soprano. He plays a garrulous tenor on "Are We There Yet? with Helzer keeping the riff alive and ornamented. A downshift explores shades of anxiousness, shifting suddenly to a frenzied ending in blue. Getting overtones on the contrabass flute worthy of a pan pipe, Golia's low notes sound like a cello on "I Just Get Dizzy Watching. Helzer scatters broken mirror chord shards. Soprano squeal starts "1st in the Fast Walking Julius Trilogy, then becoming a measured performance with intuitional high water marks.
"All Upset About the Kirward Dirby, brings Golia in on the bass saxophone, boldly swaggering through Helzer's clipped chording. "First in the Fast Walking Julius Trilogy, pt 2 takes the duo through a rigorous workout, Golia back on soprano. "The Insidious Tortures of Brian Henderson remains understated and evocative. The gorgeous melancholy of "Silent Voices combines soulful tenor work and majestic pianistics for a session standout.
Is it possible Let's All Sing the Arnold Griffith Song is based on a tweaked reworking of the "Andy Griffith Show theme structures? The playful duet features Golia on tenor. Five overdubbed tracks of Golia on the piccolo saxophone, the soprillo, create the brief "Sub Code. Together with Golia on bass flute he essays "Blue Sphere, a witty wily inversion on Monkish contrivances. Helzer and Golia again enter serious territory with "Green on Purple, only to return to whimsy for "Blue Sphere (reprise). Fancy Meeting You Here adds a jazzier, more moving title to the already prestigious Nine Winds catalogue.
 
Состав
Rick Helzer: piano
Vinny Golia: soprillo, sopranino, soprano, tenor & bass saxophones, saxello, & contrabass flute
По всем вопросам пишите личное сообщение пользователю M0p94ok.
01:05
130
Нет комментариев. Ваш будет первым!