Вы используете незарегистрированную версию компонента "Вкладки"!

Поиск

(Avant-Garde Jazz, Modern Jazz) World Saxophone Quartet (Hamiet Bluiett, Julius Hemphill, Oliver Lake, David Murray) - The Complete Remastered Recordings on Black Saint and Soul Note (6CD box-set) - 2012, FLAC (tracks+.cue), lossless

(Avant-Garde Jazz, Modern Jazz) World Saxophone Quartet (Hamiet Bluiett, Julius Hemphill, Oliver Lake, David Murray) - The Complete Remastered Recordings on Black Saint and Soul Note (6CD box-set) - 2012, FLAC (tracks+.cue), lossless
Издатель (лейбл):
Треклист:
World Saxophone Quartet / The Complete Remastered Recordings on Black Saint and Soul Note (6CD box-set)
Жанр: Avant-Garde Jazz, Modern Jazz
Страна-производитель диска: Italy
Год издания: 2012
Издатель (лейбл): CAM LONDON Ltd.
Номер по каталогу: BXS 1015
Страна: USA
Аудиокодек: FLAC (*.flac)
Тип рипа: tracks+.cue
Битрейт аудио: lossless
Продолжительность: 44:20 + 40:16 + 44:38 + 42:14 + 46:58 + 1:01:03
Источник (релизер): CD
Наличие сканов в содержимом раздачи: да
 
World Saxophone Quartet - Steppin' With The World Saxophone Quartet

Треклист:
1. Steppin' With The World Saxophone Quartet - 9:06
2. Ra-Ta-Ta - 5:26
3. Dream Scheme - 7:18
4. P.O. in Cairo - 10:48
5. Hearts - 3:01
6. R&B - 8:39
Recorded on December 1978 at Ricordi Studios, Milano
Original release: 1979
 
Лог создания рипа
Exact Audio Copy V1.0 beta 2 from 29. April 2011
EAC extraction logfile from 22. August 2012, 9:05
Steppin' With The World Saxophone Quartet / World Saxophone Quartet
Used drive : Optiarc DVD RW AD-7240S Adapter: 2 ID: 0
Read mode : Secure
Utilize accurate stream : Yes
Defeat audio cache : Yes
Make use of C2 pointers : No
Read offset correction : 48
Overread into Lead-In and Lead-Out : No
Fill up missing offset samples with silence : Yes
Delete leading and trailing silent blocks : No
Null samples used in CRC calculations : Yes
Used interface : Installed external ASPI interface
Gap handling : Appended to previous track
Used output format : User Defined Encoder
Selected bitrate : 128 kBit/s
Quality : High
Add ID3 tag : No
Command line compressor : C:\Program Files\Exact Audio Copy\FLAC\FLAC.EXE
Additional command line options : -8 -V -T "ARTIST=%artist%" -T "TITLE=%title%" -T "ALBUM=%albumtitle%" -T "DATE=%year%" -T "TRACKNUMBER=%tracknr%" -T "GENRE=%genre%" -T "COMMENT=%comment%" -T "BAND=%albuminterpret%" -T "COMPOSER=%composer%" %haslyrics%--ta
TOC of the extracted CD
Track | Start | Length | Start sector | End sector
---------------------------------------------------------
1 | 0:00.00 | 9:06.42 | 0 | 40991
2 | 9:06.42 | 5:26.65 | 40992 | 65506
3 | 14:33.32 | 7:18.35 | 65507 | 98391
4 | 21:51.67 | 10:48.20 | 98392 | 147011
5 | 32:40.12 | 3:01.25 | 147012 | 160611
6 | 35:41.37 | 8:39.38 | 160612 | 199574
Track 1
Filename C:\World Saxophone Quartet - Steppin' With The World Saxophone Quartet\01 Steppin' With The World Saxophone Quartet.wav
Pre-gap length 0:00:02.00
Peak level 95.6 %
Extraction speed 2.7 X
Track quality 100.0 %
Test CRC 09B6D23F
Copy CRC 09B6D23F
Accurately ripped (confidence 1) [D46558F4] (AR v1)
Copy OK
Track 2
Filename C:\World Saxophone Quartet - Steppin' With The World Saxophone Quartet\02 Ra-Ta-Ta.wav
Pre-gap length 0:00:03.26
Peak level 95.6 %
Extraction speed 3.0 X
Track quality 100.0 %
Test CRC BF03C201
Copy CRC BF03C201
Accurately ripped (confidence 1) [659C0A50] (AR v1)
Copy OK
Track 3
Filename C:\World Saxophone Quartet - Steppin' With The World Saxophone Quartet\03 Dream Scheme.wav
Pre-gap length 0:00:03.32
Peak level 95.6 %
Extraction speed 3.5 X
Track quality 100.0 %
Test CRC E8CE40A9
Copy CRC E8CE40A9
Accurately ripped (confidence 1) [ABDEEC2D] (AR v1)
Copy OK
Track 4
Filename C:\World Saxophone Quartet - Steppin' With The World Saxophone Quartet\04 P.O. In Cairo.wav
Pre-gap length 0:00:03.19
Peak level 95.6 %
Extraction speed 4.0 X
Track quality 100.0 %
Test CRC 4A5A43CA
Copy CRC 4A5A43CA
Accurately ripped (confidence 1) [A9B3DB97] (AR v1)
Copy OK
Track 5
Filename C:\World Saxophone Quartet - Steppin' With The World Saxophone Quartet\05 Hearts.wav
Pre-gap length 0:00:02.66
Peak level 95.6 %
Extraction speed 3.8 X
Track quality 100.0 %
Test CRC DF6EAA41
Copy CRC DF6EAA41
Accurately ripped (confidence 1) [DB66515A] (AR v1)
Copy OK
Track 6
Filename C:\World Saxophone Quartet - Steppin' With The World Saxophone Quartet\06 R&B.wav
Pre-gap length 0:00:03.05
Peak level 95.6 %
Extraction speed 4.5 X
Track quality 100.0 %
Test CRC 2F071FDC
Copy CRC 2F071FDC
Accurately ripped (confidence 1) [9FA85113] (AR v1)
Copy OK
All tracks accurately ripped
No errors occurred
End of status report
==== Log checksum 0A2415FF2F931695C48A7F0129617DDC7A63E81D94D92C721755E989E538C511 ====
 
Содержание индексной карты (.CUE)
REM GENRE Jazz
REM DATE 2012
REM DISCID 4B0A6506
REM COMMENT "ExactAudioCopy v1.0b2"
PERFORMER "Steppin' With The World Saxophone Quartet"
TITLE "World Saxophone Quartet"
FILE "01 Steppin' With The World Saxophone Quartet.wav" WAVE
TRACK 01 AUDIO
TITLE "Steppin' With The World Saxophone Quartet"
PERFORMER "World Saxophone Quartet"
ISRC ITBP71157915
FLAGS DCP
INDEX 01 00:00:00
TRACK 02 AUDIO
TITLE "Ra-Ta-Ta"
PERFORMER "World Saxophone Quartet"
ISRC ITBP71157916
FLAGS DCP
INDEX 00 09:03:16
FILE "02 Ra-Ta-Ta.wav" WAVE
INDEX 01 00:00:00
TRACK 03 AUDIO
TITLE "Dream Scheme"
PERFORMER "World Saxophone Quartet"
ISRC ITBP71157917
FLAGS DCP
INDEX 00 05:23:33
FILE "03 Dream Scheme.wav" WAVE
INDEX 01 00:00:00
TRACK 04 AUDIO
TITLE "P.O. In Cairo"
PERFORMER "World Saxophone Quartet"
ISRC ITBP71157918
FLAGS DCP
INDEX 00 07:15:16
FILE "04 P.O. In Cairo.wav" WAVE
INDEX 01 00:00:00
TRACK 05 AUDIO
TITLE "Hearts"
PERFORMER "World Saxophone Quartet"
ISRC ITBP71157919
FLAGS DCP
INDEX 00 10:45:29
FILE "05 Hearts.wav" WAVE
INDEX 01 00:00:00
TRACK 06 AUDIO
TITLE "R&B"
PERFORMER "World Saxophone Quartet"
ISRC ITBP71157920
FLAGS DCP
INDEX 00 02:58:20
FILE "06 R&B.wav" WAVE
INDEX 01 00:00:00
 
Об альбоме (сборнике)
The second recording by The World Saxophone Quartet gives one a well-rounded look at this powerful group. Comprised of altoist Julius Hemphill (who contributes four of the six group originals), altoist Oliver Lake, tenorman David Murray and baritonist Hamiet Bluiett, the explorative yet rhythmic group is heard in their early prime on this stimulating release. ~ s.yanow, allmusic.com
 
Состав
Hamiet Bluiett - baritone saxophone, flute
Julius Hemphill - alto & soprano saxophones
Oliver Lake - alto & soprano saxophones
David Murray - tenor saxophone, bass clarinet
 
World Saxophone Quartet - W.S.Q.

Треклист:
1. Sundance - 2:44
2. Plain Song - 4:23
3. Connections - 8:10
4. W.S.Q. - 5:22
5. Pillars Latino - 5:25
6. Suite Music - 5:28
7. Sound Light - 5:39
8. Fast Life - 3:01
Recorded and Mixed: March 1980 at Sound Heights Studio, Brooklyn, N.Y.
Original release: 1981
 
Лог создания рипа
Exact Audio Copy V1.0 beta 2 from 29. April 2011
EAC extraction logfile from 9. August 2012, 13:00
World Saxophone Quartet / W.S.Q.
Used drive : Optiarc DVD RW AD-7240S Adapter: 2 ID: 0
Read mode : Secure
Utilize accurate stream : Yes
Defeat audio cache : Yes
Make use of C2 pointers : No
Read offset correction : 48
Overread into Lead-In and Lead-Out : No
Fill up missing offset samples with silence : Yes
Delete leading and trailing silent blocks : No
Null samples used in CRC calculations : Yes
Used interface : Installed external ASPI interface
Gap handling : Appended to previous track
Used output format : User Defined Encoder
Selected bitrate : 128 kBit/s
Quality : High
Add ID3 tag : No
Command line compressor : C:\Program Files\Exact Audio Copy\FLAC\FLAC.EXE
Additional command line options : -8 -V -T "ARTIST=%artist%" -T "TITLE=%title%" -T "ALBUM=%albumtitle%" -T "DATE=%year%" -T "TRACKNUMBER=%tracknr%" -T "GENRE=%genre%" -T "COMMENT=%comment%" -T "BAND=%albuminterpret%" -T "COMPOSER=%composer%" %haslyrics%--ta
TOC of the extracted CD
Track | Start | Length | Start sector | End sector
---------------------------------------------------------
1 | 0:00.00 | 2:44.07 | 0 | 12306
2 | 2:44.07 | 4:23.28 | 12307 | 32059
3 | 7:07.35 | 8:10.67 | 32060 | 68876
4 | 15:18.27 | 5:22.74 | 68877 | 93100
5 | 20:41.26 | 5:25.03 | 93101 | 117478
6 | 26:06.29 | 5:28.44 | 117479 | 142122
7 | 31:34.73 | 5:39.21 | 142123 | 167568
8 | 37:14.19 | 3:01.71 | 167569 | 181214
Track 1
Filename C:\World Saxophone Quartet - W.S.Q\01 Sundance.wav
Pre-gap length 0:00:02.00
Peak level 100.0 %
Extraction speed 2.1 X
Track quality 100.0 %
Test CRC 4051B059
Copy CRC 4051B059
Accurately ripped (confidence 1) [D3450923] (AR v1)
Copy OK
Track 2
Filename C:\World Saxophone Quartet - W.S.Q\02 Plain Song.wav
Pre-gap length 0:00:02.52
Peak level 100.0 %
Extraction speed 2.6 X
Track quality 100.0 %
Test CRC 95EC41DB
Copy CRC 95EC41DB
Accurately ripped (confidence 1) [797674B0] (AR v1)
Copy OK
Track 3
Filename C:\World Saxophone Quartet - W.S.Q\03 Connections.wav
Pre-gap length 0:00:02.15
Peak level 100.0 %
Extraction speed 3.1 X
Track quality 100.0 %
Test CRC D3C74590
Copy CRC D3C74590
Accurately ripped (confidence 1) [70583F3C] (AR v1)
Copy OK
Track 4
Filename C:\World Saxophone Quartet - W.S.Q\04 W.S.Q..wav
Pre-gap length 0:00:02.30
Peak level 100.0 %
Extraction speed 3.3 X
Track quality 100.0 %
Test CRC E080BD50
Copy CRC E080BD50
Accurately ripped (confidence 1) [C72BD988] (AR v1)
Copy OK
Track 5
Filename C:\World Saxophone Quartet - W.S.Q\05 Pillars Latino.wav
Pre-gap length 0:00:03.48
Peak level 100.0 %
Extraction speed 3.3 X
Track quality 99.9 %
Test CRC A5F85ABC
Copy CRC A5F85ABC
Accurately ripped (confidence 1) [02B3E19C] (AR v1)
Copy OK
Track 6
Filename C:\World Saxophone Quartet - W.S.Q\06 Suite Music- The Key, Ballad For Eddie Jefferson, Pam-Maw, Hattie Wall.wav
Pre-gap length 0:00:02.68
Peak level 100.0 %
Extraction speed 3.9 X
Track quality 100.0 %
Test CRC A1F3C816
Copy CRC A1F3C816
Accurately ripped (confidence 1) [3B4376D5] (AR v1)
Copy OK
Track 7
Filename C:\World Saxophone Quartet - W.S.Q\07 Sound Light.wav
Pre-gap length 0:00:02.73
Peak level 100.0 %
Extraction speed 3.8 X
Track quality 99.9 %
Test CRC F8B92F39
Copy CRC F8B92F39
Accurately ripped (confidence 1) [9662F181] (AR v1)
Copy OK
Track 8
Filename C:\World Saxophone Quartet - W.S.Q\08 Fast Life.wav
Pre-gap length 0:00:02.48
Peak level 100.0 %
Extraction speed 3.4 X
Track quality 99.9 %
Test CRC 8AE8AC10
Copy CRC 8AE8AC10
Accurately ripped (confidence 1) [A6513D24] (AR v1)
Copy OK
All tracks accurately ripped
No errors occurred
End of status report
==== Log checksum 6A50B3F0547AA3130A59AC18E6433191393714E6BA618BF88421A614953E72F0 ====
 
Содержание индексной карты (.CUE)
REM GENRE Jazz
REM DATE 2012
REM DISCID 6C097008
REM COMMENT "ExactAudioCopy v1.0b2"
PERFORMER "World Saxophone Quartet"
TITLE "W.S.Q."
FILE "01 Sundance.wav" WAVE
TRACK 01 AUDIO
TITLE "Sundance"
PERFORMER "World Saxophone Quartet"
ISRC ITBP71157921
FLAGS DCP
INDEX 01 00:00:00
TRACK 02 AUDIO
TITLE "Plain Song"
PERFORMER "World Saxophone Quartet"
ISRC ITBP71157922
FLAGS DCP
INDEX 00 02:41:30
FILE "02 Plain Song.wav" WAVE
INDEX 01 00:00:00
TRACK 03 AUDIO
TITLE "Connections"
PERFORMER "World Saxophone Quartet"
ISRC ITBP71157923
FLAGS DCP
INDEX 00 04:21:13
FILE "03 Connections.wav" WAVE
INDEX 01 00:00:00
TRACK 04 AUDIO
TITLE "W.S.Q."
PERFORMER "World Saxophone Quartet"
ISRC ITBP71157924
FLAGS DCP
INDEX 00 08:08:37
FILE "04 W.S.Q..wav" WAVE
INDEX 01 00:00:00
TRACK 05 AUDIO
TITLE "Pillars Latino"
PERFORMER "World Saxophone Quartet"
ISRC ITBP71157925
FLAGS DCP
INDEX 00 05:19:26
FILE "05 Pillars Latino.wav" WAVE
INDEX 01 00:00:00
TRACK 06 AUDIO
TITLE "Suite Music: The Key, Ballad For Eddie Jefferson, Pam-Maw, Hattie Wall"
PERFORMER "World Saxophone Quartet"
ISRC ITBP71157926
FLAGS DCP
INDEX 00 05:22:10
FILE "06 Suite Music- The Key, Ballad For Eddie Jefferson, Pam-Maw, Hattie Wall.wav" WAVE
INDEX 01 00:00:00
TRACK 07 AUDIO
TITLE "Sound Light"
PERFORMER "World Saxophone Quartet"
ISRC ITBP71157927
FLAGS DCP
INDEX 00 05:25:46
FILE "07 Sound Light.wav" WAVE
INDEX 01 00:00:00
TRACK 08 AUDIO
TITLE "Fast Life"
PERFORMER "World Saxophone Quartet"
ISRC ITBP71157928
FLAGS DCP
INDEX 00 05:36:48
FILE "08 Fast Life.wav" WAVE
INDEX 01 00:00:00
 
Об альбоме (сборнике)
There is plenty of variety to the third album by the unique World Saxophone Quartet. The music ranges from nearly free improvisations to the four-part "Suite Music," which was almost completely written out. Rather than being a screamfest for the four innovative saxophonists (baritonist Hamiet Bluiett, altoists Julius Hemphill and Oliver Lake and tenor saxophonist David Murray, all of whom double on other reeds), this is a well constructed and sometimes surprisingly accessible (although always explorative) program. ~ s.yanow, allmusic.com
 
Состав
Hamiet Bluiett - baritone saxophone, alto clarinet
Julius Hemphill - alto saxophone, tenor saxophone
Oliver Lake - alto, tenor, soprano saxophone
David Murray - tenor saxophone, bass clarinet
 
World Saxophone Quartet - Revue

Треклист:
1. Revue - 8:02
2. Affairs Of The Heart - 5:44
3. Slide - 3:43
4. Little Samba - 5:29
5. I Heard That - 3:26
6. Hymn For The Old Year - 4:26
7. Ming - 4:23
8. David's Tune - 8:16
9. Quinn Chapel A.M.E. Church - 1:04
Recorded October 14, 1980 at IRCAM Studio at Georges Pompidou Centre, Paris
Original release: 1982
 
Лог создания рипа
Exact Audio Copy V1.0 beta 2 from 29. April 2011
EAC extraction logfile from 9. August 2012, 13:31
World Saxophone Quartet / Revue
Used drive : Optiarc DVD RW AD-7240S Adapter: 2 ID: 0
Read mode : Secure
Utilize accurate stream : Yes
Defeat audio cache : Yes
Make use of C2 pointers : No
Read offset correction : 48
Overread into Lead-In and Lead-Out : No
Fill up missing offset samples with silence : Yes
Delete leading and trailing silent blocks : No
Null samples used in CRC calculations : Yes
Used interface : Installed external ASPI interface
Gap handling : Appended to previous track
Used output format : User Defined Encoder
Selected bitrate : 128 kBit/s
Quality : High
Add ID3 tag : No
Command line compressor : C:\Program Files\Exact Audio Copy\FLAC\FLAC.EXE
Additional command line options : -8 -V -T "ARTIST=%artist%" -T "TITLE=%title%" -T "ALBUM=%albumtitle%" -T "DATE=%year%" -T "TRACKNUMBER=%tracknr%" -T "GENRE=%genre%" -T "COMMENT=%comment%" -T "BAND=%albuminterpret%" -T "COMPOSER=%composer%" %haslyrics%--ta
TOC of the extracted CD
Track | Start | Length | Start sector | End sector
---------------------------------------------------------
1 | 0:00.00 | 8:02.25 | 0 | 36174
2 | 8:02.25 | 5:44.39 | 36175 | 62013
3 | 13:46.64 | 3:43.68 | 62014 | 78806
4 | 17:30.57 | 5:29.33 | 78807 | 103514
5 | 23:00.15 | 3:26.52 | 103515 | 119016
6 | 26:26.67 | 4:26.67 | 119017 | 139033
7 | 30:53.59 | 4:23.58 | 139034 | 158816
8 | 35:17.42 | 8:16.33 | 158817 | 196049
9 | 43:34.00 | 1:04.57 | 196050 | 200906
Track 1
Filename C:\World Saxophone Quartet - Revue\01 Revue.wav
Pre-gap length 0:00:02.00
Peak level 95.6 %
Extraction speed 2.6 X
Track quality 100.0 %
Test CRC 74D573B8
Copy CRC 74D573B8
Accurately ripped (confidence 1) [F53F4584] (AR v1)
Copy OK
Track 2
Filename C:\World Saxophone Quartet - Revue\02 Affairs Of The Heart.wav
Pre-gap length 0:00:03.36
Peak level 95.6 %
Extraction speed 3.0 X
Track quality 100.0 %
Test CRC 2B428F84
Copy CRC 2B428F84
Accurately ripped (confidence 1) [6092424F] (AR v1)
Copy OK
Track 3
Filename C:\World Saxophone Quartet - Revue\03 Slide.wav
Pre-gap length 0:00:04.02
Peak level 95.6 %
Extraction speed 3.1 X
Track quality 100.0 %
Test CRC 2A035785
Copy CRC 2A035785
Accurately ripped (confidence 1) [AD33CA39] (AR v1)
Copy OK
Track 4
Filename C:\World Saxophone Quartet - Revue\04 Little Samba.wav
Pre-gap length 0:00:03.44
Peak level 95.6 %
Extraction speed 3.5 X
Track quality 100.0 %
Test CRC 2937C127
Copy CRC 2937C127
Accurately ripped (confidence 1) [82E758A1] (AR v1)
Copy OK
Track 5
Filename C:\World Saxophone Quartet - Revue\05 I Heard That.wav
Pre-gap length 0:00:03.58
Peak level 95.6 %
Extraction speed 3.4 X
Track quality 100.0 %
Test CRC 1E1E42DA
Copy CRC 1E1E42DA
Accurately ripped (confidence 1) [8D6AED07] (AR v1)
Copy OK
Track 6
Filename C:\World Saxophone Quartet - Revue\06 Hymn For The Old Year.wav
Pre-gap length 0:00:03.52
Peak level 95.6 %
Extraction speed 3.4 X
Track quality 99.9 %
Test CRC 0F1EB5A5
Copy CRC 0F1EB5A5
Accurately ripped (confidence 1) [2EB56ED7] (AR v1)
Copy OK
Track 7
Filename C:\World Saxophone Quartet - Revue\07 Ming.wav
Pre-gap length 0:00:02.64
Peak level 95.6 %
Extraction speed 4.0 X
Track quality 100.0 %
Test CRC EF00F80E
Copy CRC EF00F80E
Accurately ripped (confidence 1) [AC2DC01F] (AR v1)
Copy OK
Track 8
Filename C:\World Saxophone Quartet - Revue\08 David's Tune.wav
Pre-gap length 0:00:02.43
Peak level 95.6 %
Extraction speed 4.5 X
Track quality 100.0 %
Test CRC 2E698A89
Copy CRC 2E698A89
Accurately ripped (confidence 1) [E92884DA] (AR v1)
Copy OK
Track 9
Filename C:\World Saxophone Quartet - Revue\09 Quinn Chapel A.M.E. Church.wav
Pre-gap length 0:00:02.64
Peak level 95.6 %
Extraction speed 2.3 X
Track quality 99.8 %
Test CRC 4F3DE509
Copy CRC 4F3DE509
Accurately ripped (confidence 1) [5658CA3F] (AR v1)
Copy OK
All tracks accurately ripped
No errors occurred
End of status report
==== Log checksum F4128942A22D2BCF1AEECC1D3CBD6E565CD3C463E972770853B903084BED596F ====
 
Содержание индексной карты (.CUE)
REM GENRE Jazz
REM DATE 2012
REM DISCID 7F0A7609
REM COMMENT "ExactAudioCopy v1.0b2"
PERFORMER "World Saxophone Quartet"
TITLE "Revue"
FILE "01 Revue.wav" WAVE
TRACK 01 AUDIO
TITLE "Revue"
PERFORMER "World Saxophone Quartet"
ISRC ITBP71157929
FLAGS DCP
INDEX 01 00:00:00
TRACK 02 AUDIO
TITLE "Affairs Of The Heart"
PERFORMER "World Saxophone Quartet"
ISRC ITBP71157930
FLAGS DCP
INDEX 00 07:58:64
FILE "02 Affairs Of The Heart.wav" WAVE
INDEX 01 00:00:00
TRACK 03 AUDIO
TITLE "Slide"
PERFORMER "World Saxophone Quartet"
ISRC ITBP71157931
FLAGS DCP
INDEX 00 05:40:37
FILE "03 Slide.wav" WAVE
INDEX 01 00:00:00
TRACK 04 AUDIO
TITLE "Little Samba"
PERFORMER "World Saxophone Quartet"
ISRC ITBP71157932
FLAGS DCP
INDEX 00 03:40:24
FILE "04 Little Samba.wav" WAVE
INDEX 01 00:00:00
TRACK 05 AUDIO
TITLE "I Heard That"
PERFORMER "World Saxophone Quartet"
ISRC ITBP71157933
FLAGS DCP
INDEX 00 05:25:50
FILE "05 I Heard That.wav" WAVE
INDEX 01 00:00:00
TRACK 06 AUDIO
TITLE "Hymn For The Old Year"
PERFORMER "World Saxophone Quartet"
ISRC ITBP71157934
FLAGS DCP
INDEX 00 03:23:00
FILE "06 Hymn For The Old Year.wav" WAVE
INDEX 01 00:00:00
TRACK 07 AUDIO
TITLE "Ming"
PERFORMER "World Saxophone Quartet"
ISRC ITBP71157935
FLAGS DCP
INDEX 00 04:24:03
FILE "07 Ming.wav" WAVE
INDEX 01 00:00:00
TRACK 08 AUDIO
TITLE "David's Tune"
PERFORMER "World Saxophone Quartet"
ISRC ITBP71157936
FLAGS DCP
INDEX 00 04:21:15
FILE "08 David's Tune.wav" WAVE
INDEX 01 00:00:00
TRACK 09 AUDIO
TITLE "Quinn Chapel A.M.E. Church"
PERFORMER "World Saxophone Quartet"
ISRC ITBP71157937
FLAGS DCP
INDEX 00 08:13:44
FILE "09 Quinn Chapel A.M.E. Church.wav" WAVE
INDEX 01 00:00:00
 
Об альбоме (сборнике)
No permutation of instruments can be more sheerly tedious and yet more compelling than four saxophones together. The difference lies int he players involved and, for as many years as anyone cares to remember, the World Saxophone Quartet has been the market-leader. ~ the penguin guide to jazz on cd
 
Состав
Hamiet Bluiett - baritone saxophone, alto clarinet
Julius Hemphill - alto saxophone, soprano saxophone, flute
Oliver Lake - alto, tenor, soprano saxophone, flute
David Murray - tenor saxophone, bass clarinet
 
World Saxophone Quartet - Live In Zurich

Треклист:
1. Hattie Wall - 2:00
2. Funny Paper - 4:55
3. Touchic - 5:39
4. My First Winter - 7:19
5. Bordertown - 7:41
6. Steppin' - 7:15
7. Stick - 5:19
8. Hattie Wall - 2:03
Recorded Live November 6, 1981 at Jazz Festival, Zürich
Original release: 1984
 
Лог создания рипа
Exact Audio Copy V1.0 beta 2 from 29. April 2011
EAC extraction logfile from 9. August 2012, 14:02
World Saxophone Quartet / Live In Zurich
Used drive : Optiarc DVD RW AD-7240S Adapter: 2 ID: 0
Read mode : Secure
Utilize accurate stream : Yes
Defeat audio cache : Yes
Make use of C2 pointers : No
Read offset correction : 48
Overread into Lead-In and Lead-Out : No
Fill up missing offset samples with silence : Yes
Delete leading and trailing silent blocks : No
Null samples used in CRC calculations : Yes
Used interface : Installed external ASPI interface
Gap handling : Appended to previous track
Used output format : User Defined Encoder
Selected bitrate : 128 kBit/s
Quality : High
Add ID3 tag : No
Command line compressor : C:\Program Files\Exact Audio Copy\FLAC\FLAC.EXE
Additional command line options : -8 -V -T "ARTIST=%artist%" -T "TITLE=%title%" -T "ALBUM=%albumtitle%" -T "DATE=%year%" -T "TRACKNUMBER=%tracknr%" -T "GENRE=%genre%" -T "COMMENT=%comment%" -T "BAND=%albuminterpret%" -T "COMPOSER=%composer%" %haslyrics%--ta
TOC of the extracted CD
Track | Start | Length | Start sector | End sector
---------------------------------------------------------
1 | 0:00.00 | 2:00.42 | 0 | 9041
2 | 2:00.42 | 4:55.68 | 9042 | 31234
3 | 6:56.35 | 5:39.01 | 31235 | 56660
4 | 12:35.36 | 7:19.62 | 56661 | 89647
5 | 19:55.23 | 7:41.28 | 89648 | 124250
6 | 27:36.51 | 7:15.53 | 124251 | 156928
7 | 34:52.29 | 5:19.13 | 156929 | 180866
8 | 40:11.42 | 2:03.23 | 180867 | 190114
Track 1
Filename C:\World Saxophone Quartet - Live In Zurich\01 Hattie Wall.wav
Pre-gap length 0:00:02.00
Peak level 94.5 %
Extraction speed 2.0 X
Track quality 100.0 %
Test CRC 07B16D48
Copy CRC 07B16D48
Accurately ripped (confidence 1) [9E26C0C1] (AR v1)
Copy OK
Track 2
Filename C:\World Saxophone Quartet - Live In Zurich\02 Funny Paper.wav
Peak level 91.2 %
Extraction speed 2.6 X
Track quality 100.0 %
Test CRC E5225676
Copy CRC E5225676
Accurately ripped (confidence 1) [75EDF5A6] (AR v1)
Copy OK
Track 3
Filename C:\World Saxophone Quartet - Live In Zurich\03 Touchic.wav
Peak level 94.5 %
Extraction speed 2.9 X
Track quality 100.0 %
Test CRC 6E138D2D
Copy CRC 6E138D2D
Accurately ripped (confidence 1) [CD5901DE] (AR v1)
Copy OK
Track 4
Filename C:\World Saxophone Quartet - Live In Zurich\04 My First Winter.wav
Peak level 94.5 %
Extraction speed 3.4 X
Track quality 100.0 %
Test CRC 096312E6
Copy CRC 096312E6
Accurately ripped (confidence 1) [DEFD940C] (AR v1)
Copy OK
Track 5
Filename C:\World Saxophone Quartet - Live In Zurich\05 Bordertown.wav
Peak level 94.5 %
Extraction speed 3.8 X
Track quality 100.0 %
Test CRC 2639F064
Copy CRC 2639F064
Accurately ripped (confidence 1) [3E11F9FC] (AR v1)
Copy OK
Track 6
Filename C:\World Saxophone Quartet - Live In Zurich\06 Steppin'.wav
Peak level 94.5 %
Extraction speed 4.1 X
Track quality 100.0 %
Test CRC 6AFCADCA
Copy CRC 6AFCADCA
Accurately ripped (confidence 1) [A5536F5E] (AR v1)
Copy OK
Track 7
Filename C:\World Saxophone Quartet - Live In Zurich\07 Stick.wav
Peak level 94.5 %
Extraction speed 4.2 X
Track quality 100.0 %
Test CRC E3B406D2
Copy CRC E3B406D2
Accurately ripped (confidence 1) [8D45B6BD] (AR v1)
Copy OK
Track 8
Filename C:\World Saxophone Quartet - Live In Zurich\08 Hattie Wall.wav
Peak level 94.5 %
Extraction speed 3.8 X
Track quality 100.0 %
Test CRC B43737E0
Copy CRC B43737E0
Accurately ripped (confidence 1) [EE91C142] (AR v1)
Copy OK
All tracks accurately ripped
No errors occurred
End of status report
==== Log checksum B5C2A18BFF4955724BE0E190F2CCE73792D2C76A0495DCC8624A9CC01AEA1F50 ====
 
Содержание индексной карты (.CUE)
REM GENRE Jazz
REM DATE 2012
REM DISCID 6609E608
REM COMMENT "ExactAudioCopy v1.0b2"
PERFORMER "World Saxophone Quartet"
TITLE "Live In Zurich"
FILE "01 Hattie Wall.wav" WAVE
TRACK 01 AUDIO
TITLE "Hattie Wall"
PERFORMER "World Saxophone Quartet"
ISRC ITBP71157938
FLAGS DCP
INDEX 01 00:00:00
FILE "02 Funny Paper.wav" WAVE
TRACK 02 AUDIO
TITLE "Funny Paper"
PERFORMER "World Saxophone Quartet"
ISRC ITBP71157939
FLAGS DCP
INDEX 01 00:00:00
FILE "03 Touchic.wav" WAVE
TRACK 03 AUDIO
TITLE "Touchic"
PERFORMER "World Saxophone Quartet"
ISRC ITBP71157940
FLAGS DCP
INDEX 01 00:00:00
FILE "04 My First Winter.wav" WAVE
TRACK 04 AUDIO
TITLE "My First Winter"
PERFORMER "World Saxophone Quartet"
ISRC ITBP71157941
FLAGS DCP
INDEX 01 00:00:00
FILE "05 Bordertown.wav" WAVE
TRACK 05 AUDIO
TITLE "Bordertown"
PERFORMER "World Saxophone Quartet"
ISRC ITBP71157942
FLAGS DCP
INDEX 01 00:00:00
FILE "06 Steppin'.wav" WAVE
TRACK 06 AUDIO
TITLE "Steppin'"
PERFORMER "World Saxophone Quartet"
ISRC ITBP71157943
FLAGS DCP
INDEX 01 00:00:00
FILE "07 Stick.wav" WAVE
TRACK 07 AUDIO
TITLE "Stick"
PERFORMER "World Saxophone Quartet"
ISRC ITBP71157944
FLAGS DCP
INDEX 01 00:00:00
FILE "08 Hattie Wall.wav" WAVE
TRACK 08 AUDIO
TITLE "Hattie Wall"
PERFORMER "World Saxophone Quartet"
ISRC ITBP71157945
FLAGS DCP
INDEX 01 00:00:00
 
Об альбоме (сборнике)
By 1981, after four years of existence, it was obvious that the most talented writer in the World Saxophone Quartet was altoist Julius Hemphill. This Black Saint release finds Hemphill contributing six of the eight pieces (the other two are by Hamiet Bluiett), including the hard-swinging "Bordertown," the colorful "Steppin" and a vivid feature for David Murray's tenor on "My First Winter." A particularly strong release by a classic and innovative group. ~ s.yanow, allmusic.com
 
Состав
Hamiet Bluiett - baritone saxophone, alto flute, alto clarinet
Julius Hemphill - alto and soprano saxophone, flute
Oliver Lake - alto, tenor and soprano saxophone, flute
David Murray - tenor saxophone, bass clarinet
 
World Saxophone Quartet - Live At Brooklyn Academy Of Music

Треклист:
1. One/Waltz/Time - 3:49
2. Great Peace - 14:48
3. Kind'a Up - 3:58
4. Paper Works - 7;53
5. Open Air (For Tommy) - 10:06
6. Georgia Blue - 6:21
Recorded Live on December 6 and 7, 1985 at Brooklyn Academy of Music, Brooklyn, New York
Original release: 1986
 
Лог создания рипа
Exact Audio Copy V1.0 beta 2 from 29. April 2011
EAC extraction logfile from 9. August 2012, 14:34
World Saxophone Quartet / Live At Brooklyn Academy Of Music
Used drive : Optiarc DVD RW AD-7240S Adapter: 2 ID: 0
Read mode : Secure
Utilize accurate stream : Yes
Defeat audio cache : Yes
Make use of C2 pointers : No
Read offset correction : 48
Overread into Lead-In and Lead-Out : No
Fill up missing offset samples with silence : Yes
Delete leading and trailing silent blocks : No
Null samples used in CRC calculations : Yes
Used interface : Installed external ASPI interface
Gap handling : Appended to previous track
Used output format : User Defined Encoder
Selected bitrate : 128 kBit/s
Quality : High
Add ID3 tag : No
Command line compressor : C:\Program Files\Exact Audio Copy\FLAC\FLAC.EXE
Additional command line options : -8 -V -T "ARTIST=%artist%" -T "TITLE=%title%" -T "ALBUM=%albumtitle%" -T "DATE=%year%" -T "TRACKNUMBER=%tracknr%" -T "GENRE=%genre%" -T "COMMENT=%comment%" -T "BAND=%albuminterpret%" -T "COMPOSER=%composer%" %haslyrics%--ta
TOC of the extracted CD
Track | Start | Length | Start sector | End sector
---------------------------------------------------------
1 | 0:00.00 | 3:49.74 | 0 | 17248
2 | 3:49.74 | 14:48.38 | 17249 | 83886
3 | 18:38.37 | 3:58.47 | 83887 | 101783
4 | 22:37.09 | 7:53.31 | 101784 | 137289
5 | 30:30.40 | 10:06.16 | 137290 | 182755
6 | 40:36.56 | 6:21.50 | 182756 | 211380
Track 1
Filename C:\World Saxophone Quartet - Live At Brooklyn Academy Of Music\01 One-Waltz-Time.wav
Pre-gap length 0:00:02.00
Peak level 94.9 %
Extraction speed 2.3 X
Track quality 100.0 %
Test CRC E6BF9CB7
Copy CRC E6BF9CB7
Accurately ripped (confidence 1) [A9259698] (AR v1)
Copy OK
Track 2
Filename C:\World Saxophone Quartet - Live At Brooklyn Academy Of Music\02 Great Peace.wav
Pre-gap length 0:00:03.20
Peak level 94.9 %
Extraction speed 3.2 X
Track quality 100.0 %
Test CRC EB34EE22
Copy CRC EB34EE22
Accurately ripped (confidence 1) [500AA0C6] (AR v1)
Copy OK
Track 3
Filename C:\World Saxophone Quartet - Live At Brooklyn Academy Of Music\03 Kinda' Up.wav
Pre-gap length 0:00:02.06
Peak level 94.9 %
Extraction speed 3.4 X
Track quality 100.0 %
Test CRC 0E0F1DF5
Copy CRC 0E0F1DF5
Accurately ripped (confidence 1) [DF91656E] (AR v1)
Copy OK
Track 4
Filename C:\World Saxophone Quartet - Live At Brooklyn Academy Of Music\04 Paper Works.wav
Pre-gap length 0:00:04.35
Peak level 94.9 %
Extraction speed 3.7 X
Track quality 99.9 %
Test CRC A3FA8AB0
Copy CRC A3FA8AB0
Accurately ripped (confidence 1) [9F1949BB] (AR v1)
Copy OK
Track 5
Filename C:\World Saxophone Quartet - Live At Brooklyn Academy Of Music\05 OPEN AIR (For Tommy).wav
Pre-gap length 0:00:03.02
Peak level 94.9 %
Extraction speed 4.1 X
Track quality 99.9 %
Test CRC CDEF5B1B
Copy CRC CDEF5B1B
Accurately ripped (confidence 1) [1DFD2DA6] (AR v1)
Copy OK
Track 6
Filename C:\World Saxophone Quartet - Live At Brooklyn Academy Of Music\06 Georgia Blue.wav
Pre-gap length 0:00:02.25
Peak level 94.9 %
Extraction speed 4.6 X
Track quality 100.0 %
Test CRC 55B4A71D
Copy CRC 55B4A71D
Accurately ripped (confidence 1) [F5646E2B] (AR v1)
Copy OK
All tracks accurately ripped
No errors occurred
End of status report
==== Log checksum D7855204136C4BC626D40FF12E481954534AFC2DEF6EC6432EF308C49CEED9DF ====
 
Содержание индексной карты (.CUE)
REM GENRE Jazz
REM DATE 2012
REM DISCID 3D0B0206
REM COMMENT "ExactAudioCopy v1.0b2"
PERFORMER "World Saxophone Quartet"
TITLE "Live At Brooklyn Academy Of Music"
FILE "01 One-Waltz-Time.wav" WAVE
TRACK 01 AUDIO
TITLE "One\Waltz\Time"
PERFORMER "World Saxophone Quartet"
ISRC ITBP71157946
FLAGS DCP
INDEX 01 00:00:00
TRACK 02 AUDIO
TITLE "Great Peace"
PERFORMER "World Saxophone Quartet"
ISRC ITBP71157947
FLAGS DCP
INDEX 00 03:46:54
FILE "02 Great Peace.wav" WAVE
INDEX 01 00:00:00
TRACK 03 AUDIO
TITLE "Kinda' Up"
PERFORMER "World Saxophone Quartet"
ISRC ITBP71157948
FLAGS DCP
INDEX 00 14:46:32
FILE "03 Kinda' Up.wav" WAVE
INDEX 01 00:00:00
TRACK 04 AUDIO
TITLE "Paper Works"
PERFORMER "World Saxophone Quartet"
ISRC ITBP71157949
FLAGS DCP
INDEX 00 03:54:12
FILE "04 Paper Works.wav" WAVE
INDEX 01 00:00:00
TRACK 05 AUDIO
TITLE "OPEN AIR (For Tommy)"
PERFORMER "World Saxophone Quartet"
ISRC ITBP71157950
FLAGS DCP
INDEX 00 07:50:29
FILE "05 OPEN AIR (For Tommy).wav" WAVE
INDEX 01 00:00:00
TRACK 06 AUDIO
TITLE "Georgia Blue"
PERFORMER "World Saxophone Quartet"
ISRC ITBP71157951
FLAGS DCP
INDEX 00 10:03:66
FILE "06 Georgia Blue.wav" WAVE
INDEX 01 00:00:00
 
Об альбоме (сборнике)
The World Saxophone Quartet's first recording in four years found the group's power and adventurous nature unchanged. In existence on a part-time basis for eight years at this point, the band still sounded quite unique, making avant-garde explorations almost seem accessible at times and playing quite rhythmically in places even without the presence of a rhythm section. Altoists Julius Hemphill and Oliver Lake, tenor saxophonist David Murray and baritonist Hamiet Bluiett (all of whom double on other reeds) were individually quite innovative, but they were also able to blend together to form an unusual group sound. Of their six originals, it is as usual the three Hemphill contributions that are most memorable. ~ s.yanow, allmusic.com
 
Состав
Hamiet Bluiett - baritone saxophone, alto clarinet
Julius Hemphill - alto and soprano saxophone
Oliver Lake - alto and soprano saxophone
David Murray - tenor saxophone, bass clarinet
 
World Saxophone Quartet - Moving Right Along

Треклист:
01. Antithesis - 7:10
02. Baba 2 - 4:34
03. N.T. - 4:10
04. Astral Travels - 1:15
05. Land Of Mistery - 4:24
06. Movin' On - 6:15
07. Amazing Grace Part I - 4:29
08. Giant Steps - 2:59
09. Urban - 6:01
10. Sharrod - 4:08
11. M.I.L.D. - 6:24
12. Lighting and Thunder - 3:51
13. Amazing Grace Part II - 5:18
Recorded on October 18 and 19, 1993
Original release: 1994
 
Лог создания рипа
Exact Audio Copy V1.0 beta 2 from 29. April 2011
EAC extraction logfile from 9. August 2012, 15:14
World Saxophone Quartet / Moving Right Along
Used drive : Optiarc DVD RW AD-7240S Adapter: 2 ID: 0
Read mode : Secure
Utilize accurate stream : Yes
Defeat audio cache : Yes
Make use of C2 pointers : No
Read offset correction : 48
Overread into Lead-In and Lead-Out : No
Fill up missing offset samples with silence : Yes
Delete leading and trailing silent blocks : No
Null samples used in CRC calculations : Yes
Used interface : Installed external ASPI interface
Gap handling : Appended to previous track
Used output format : User Defined Encoder
Selected bitrate : 128 kBit/s
Quality : High
Add ID3 tag : No
Command line compressor : C:\Program Files\Exact Audio Copy\FLAC\FLAC.EXE
Additional command line options : -8 -V -T "ARTIST=%artist%" -T "TITLE=%title%" -T "ALBUM=%albumtitle%" -T "DATE=%year%" -T "TRACKNUMBER=%tracknr%" -T "GENRE=%genre%" -T "COMMENT=%comment%" -T "BAND=%albuminterpret%" -T "COMPOSER=%composer%" %haslyrics%--ta
TOC of the extracted CD
Track | Start | Length | Start sector | End sector
---------------------------------------------------------
1 | 0:00.00 | 7:10.57 | 0 | 32306
2 | 7:10.57 | 4:34.26 | 32307 | 52882
3 | 11:45.08 | 4:10.24 | 52883 | 71656
4 | 15:55.32 | 1:15.21 | 71657 | 77302
5 | 17:10.53 | 4:24.11 | 77303 | 97113
6 | 21:34.64 | 6:15.33 | 97114 | 125271
7 | 27:50.22 | 4:29.44 | 125272 | 145490
8 | 32:19.66 | 2:59.32 | 145491 | 158947
9 | 35:19.23 | 6:01.60 | 158948 | 186082
10 | 41:21.08 | 4:08.11 | 186083 | 204693
11 | 45:29.19 | 6:24.20 | 204694 | 233513
12 | 51:53.39 | 3:51.47 | 233514 | 250885
13 | 55:45.11 | 5:18.01 | 250886 | 274736
Track 1
Filename C:\World Saxophone Quartet - Moving Right Along\01 Antithesis.wav
Pre-gap length 0:00:02.00
Peak level 76.4 %
Extraction speed 2.6 X
Track quality 100.0 %
Test CRC 85F4421D
Copy CRC 85F4421D
Accurately ripped (confidence 1) [FDB8786F] (AR v1)
Copy OK
Track 2
Filename C:\World Saxophone Quartet - Moving Right Along\02 Baba 2.wav
Pre-gap length 0:00:03.25
Peak level 94.5 %
Extraction speed 2.8 X
Track quality 100.0 %
Test CRC 1315052B
Copy CRC 1315052B
Accurately ripped (confidence 1) [C56F5CC1] (AR v1)
Copy OK
Track 3
Filename C:\World Saxophone Quartet - Moving Right Along\03 N.T..wav
Pre-gap length 0:00:03.51
Peak level 94.5 %
Extraction speed 2.7 X
Track quality 99.9 %
Test CRC 78107667
Copy CRC 78107667
Accurately ripped (confidence 1) [97278B6F] (AR v1)
Copy OK
Track 4
Filename C:\World Saxophone Quartet - Moving Right Along\04 Astral Travels.wav
Pre-gap length 0:00:03.53
Peak level 82.6 %
Extraction speed 2.4 X
Track quality 100.0 %
Test CRC 7B510FA4
Copy CRC 7B510FA4
Accurately ripped (confidence 1) [6118B6ED] (AR v1)
Copy OK
Track 5
Filename C:\World Saxophone Quartet - Moving Right Along\05 Land Of Mystery.wav
Peak level 74.8 %
Extraction speed 3.4 X
Track quality 100.0 %
Test CRC 694D1015
Copy CRC 694D1015
Accurately ripped (confidence 1) [9019EF98] (AR v1)
Copy OK
Track 6
Filename C:\World Saxophone Quartet - Moving Right Along\06 Movin' On.wav
Pre-gap length 0:00:04.12
Peak level 90.1 %
Extraction speed 3.7 X
Track quality 100.0 %
Test CRC 5469DD5F
Copy CRC 5469DD5F
Accurately ripped (confidence 1) [077636FA] (AR v1)
Copy OK
Track 7
Filename C:\World Saxophone Quartet - Moving Right Along\07 Amazing Grace, Pt. I.wav
Pre-gap length 0:00:02.70
Peak level 67.3 %
Extraction speed 3.4 X
Track quality 99.9 %
Test CRC 2899534D
Copy CRC 2899534D
Track not present in AccurateRip database
Copy OK
Track 8
Filename C:\World Saxophone Quartet - Moving Right Along\08 Giant Steps.wav
Pre-gap length 0:00:05.01
Peak level 94.5 %
Extraction speed 3.8 X
Track quality 100.0 %
Test CRC CFCA3119
Copy CRC CFCA3119
Track not present in AccurateRip database
Copy OK
Track 9
Filename C:\World Saxophone Quartet - Moving Right Along\09 Urban.wav
Pre-gap length 0:00:04.00
Peak level 94.5 %
Extraction speed 4.3 X
Track quality 100.0 %
Test CRC BF037A64
Copy CRC BF037A64
Track not present in AccurateRip database
Copy OK
Track 10
Filename C:\World Saxophone Quartet - Moving Right Along\10 Sharrod.wav
Pre-gap length 0:00:03.71
Peak level 73.5 %
Extraction speed 4.3 X
Track quality 100.0 %
Test CRC DA2BB9DE
Copy CRC DA2BB9DE
Track not present in AccurateRip database
Copy OK
Track 11
Filename C:\World Saxophone Quartet - Moving Right Along\11 M.I.L.D..wav
Pre-gap length 0:00:03.45
Peak level 85.6 %
Extraction speed 4.8 X
Track quality 100.0 %
Test CRC 1609023A
Copy CRC 1609023A
Track not present in AccurateRip database
Copy OK
Track 12
Filename C:\World Saxophone Quartet - Moving Right Along\12 Lightning And Thunder.wav
Pre-gap length 0:00:03.32
Peak level 93.9 %
Extraction speed 4.6 X
Track quality 100.0 %
Test CRC 2F52B9F3
Copy CRC 2F52B9F3
Track not present in AccurateRip database
Copy OK
Track 13
Filename C:\World Saxophone Quartet - Moving Right Along\13 Amazing Grace, Pt. Ii.wav
Pre-gap length 0:00:02.60
Peak level 94.5 %
Extraction speed 5.0 X
Track quality 100.0 %
Test CRC 40BC0310
Copy CRC 40BC0310
Track not present in AccurateRip database
Copy OK
6 трек(и) скопированы точно
7 трек(и) не содержатся в базе AccurateRip
Some tracks could not be verified as accurate
No errors occurred
End of status report
==== Log checksum BF21DEFA49FC6773C066875D58F3E57DC9A10C7C92D6303AF1A55CCB666DAF8D ====
 
Содержание индексной карты (.CUE)
REM GENRE Jazz
REM DATE 2012
REM DISCID A40E4F0D
REM COMMENT "ExactAudioCopy v1.0b2"
PERFORMER "World Saxophone Quartet"
TITLE "Moving Right Along"
FILE "01 Antithesis.wav" WAVE
TRACK 01 AUDIO
TITLE "Antithesis"
PERFORMER "World Saxophone Quartet"
ISRC ITBP71157952
FLAGS DCP
INDEX 01 00:00:00
TRACK 02 AUDIO
TITLE "Baba 2"
PERFORMER "World Saxophone Quartet"
ISRC ITBP71157953
FLAGS DCP
INDEX 00 07:07:32
FILE "02 Baba 2.wav" WAVE
INDEX 01 00:00:00
TRACK 03 AUDIO
TITLE "N.T."
PERFORMER "World Saxophone Quartet"
ISRC ITBP71157954
FLAGS DCP
INDEX 00 04:30:50
FILE "03 N.T..wav" WAVE
INDEX 01 00:00:00
TRACK 04 AUDIO
TITLE "Astral Travels"
PERFORMER "World Saxophone Quartet"
ISRC ITBP71157955
FLAGS DCP
INDEX 00 04:06:46
FILE "04 Astral Travels.wav" WAVE
INDEX 01 00:00:00
FILE "05 Land Of Mystery.wav" WAVE
TRACK 05 AUDIO
TITLE "Land Of Mystery"
PERFORMER "World Saxophone Quartet"
ISRC ITBP71157956
FLAGS DCP
INDEX 01 00:00:00
TRACK 06 AUDIO
TITLE "Movin' On"
PERFORMER "World Saxophone Quartet"
ISRC ITBP71157957
FLAGS DCP
INDEX 00 04:19:74
FILE "06 Movin' On.wav" WAVE
INDEX 01 00:00:00
TRACK 07 AUDIO
TITLE "Amazing Grace, Pt. I"
PERFORMER "World Saxophone Quartet"
ISRC ITBP71157958
FLAGS DCP
INDEX 00 06:12:38
FILE "07 Amazing Grace, Pt. I.wav" WAVE
INDEX 01 00:00:00
TRACK 08 AUDIO
TITLE "Giant Steps"
PERFORMER "World Saxophone Quartet"
ISRC ITBP71157959
FLAGS DCP
INDEX 00 04:24:43
FILE "08 Giant Steps.wav" WAVE
INDEX 01 00:00:00
TRACK 09 AUDIO
TITLE "Urban"
PERFORMER "World Saxophone Quartet"
ISRC ITBP71157960
FLAGS DCP
INDEX 00 02:55:32
FILE "09 Urban.wav" WAVE
INDEX 01 00:00:00
TRACK 10 AUDIO
TITLE "Sharrod"
PERFORMER "World Saxophone Quartet"
ISRC ITBP71157961
FLAGS DCP
INDEX 00 05:57:64
FILE "10 Sharrod.wav" WAVE
INDEX 01 00:00:00
TRACK 11 AUDIO
TITLE "M.I.L.D."
PERFORMER "World Saxophone Quartet"
ISRC ITBP71157962
FLAGS DCP
INDEX 00 04:04:41
FILE "11 M.I.L.D..wav" WAVE
INDEX 01 00:00:00
TRACK 12 AUDIO
TITLE "Lightning And Thunder"
PERFORMER "World Saxophone Quartet"
ISRC ITBP71157963
FLAGS DCP
INDEX 00 06:20:63
FILE "12 Lightning And Thunder.wav" WAVE
INDEX 01 00:00:00
TRACK 13 AUDIO
TITLE "Amazing Grace, Pt. Ii"
PERFORMER "World Saxophone Quartet"
ISRC ITBP71157964
FLAGS DCP
INDEX 00 03:48:62
FILE "13 Amazing Grace, Pt. Ii.wav" WAVE
INDEX 01 00:00:00
 
Об альбоме (сборнике)
This title applies to The World Saxophone Quartet's personnel as well as its music. Charter residents David Murray, Oliver Lake and Hamiett Bluiett were joined by special guest James Spaulding on two tracks, making it a quintet, and throughout by new member Eric Person. Person's composition "Antithesis," like several other selections, represented a change in the group's approach. Instead of their hallmark collectively improvised unison passages, most numbers had one or two featured soloists, with the others operating as harmony/contrast players. The WSQ did its usual array of material, from bubbling R&B and funk-tempered numbers to hard bop and swing-oriented tunes, plus two stirring renditions of "Amazing Grace." ~ r.wynn, allmusic.com
 
Состав
Oliver Lake - alto and soprano saxophone
James Spaulding - alto saxophone (tracks 11-12)
Eric Person - alto and soprano saxophone
David Murray - tenor saxophone, bass clarinet
Hamiet Bluiett - baritone saxophone, contralto clarinet
 
Доп. информация
THE COMPLETE REMASTERED RECORDINGS ON BLACK SAINT & SOUL NOTE is a monographic box-set collection aimed at recounting the most beautiful chapters that revolutionised the history of jazz. This new series was launched in March 2010 with the simultaneous release of four box-sets, including albums by some of the artists who participated in the success of the outstanding labels. A philological work, beginning with the original recordings on multi-track master tapes, patiently integrally remastered paying strict attention to the sound quality.
Any questions -> support@pro-jazz.com. По всем вопросам пишите -> support@pro-jazz.com
03:16
349
Нет комментариев. Ваш будет первым!