Вы используете незарегистрированную версию компонента "Вкладки"!

Поиск

(Avant-Garde Jazz) Enten Eller & Tim Berne - Auto Da Fe - 2001, FLAC (image+.cue), lossless

(Avant-Garde Jazz) Enten Eller & Tim Berne - Auto Da Fe - 2001, FLAC (image+.cue), lossless
Треклист:
Enten Eller & Tim Berne / Auto Da Fe
Жанр: Avant-Garde Jazz
Страна-производитель диска: Italy
Год издания: 2001
Издатель (лейбл): Splasc(H) Records
Номер по каталогу: CDH 819.2
Аудиокодек: FLAC (*.flac)
Тип рипа: image+.cue
Битрейт аудио: lossless
Продолжительность: 56:53
Источник (релизер): cd
Наличие сканов в содержимом раздачи: нет
Треклист:
1. Konos
2. Torquemada
3. Amras
4. Pulizie Di Natale
5. Traveling Day
6. Veleno Per Topi
7. Rosencrantz E Guildenstern
8. 7/13
9. Ri.Co.
 
Лог создания рипа
Exact Audio Copy V1.0 beta 2 from 29. April 2011
EAC extraction logfile from 27. August 2012, 11:17
Enten Eller & Tim Berne / Auto da fe
Used drive : Optiarc DVD RW AD-7170A Adapter: 0 ID: 0
Read mode : Secure
Utilize accurate stream : Yes
Defeat audio cache : Yes
Make use of C2 pointers : No
Read offset correction : 48
Overread into Lead-In and Lead-Out : No
Fill up missing offset samples with silence : Yes
Delete leading and trailing silent blocks : No
Null samples used in CRC calculations : Yes
Used interface : Native Win32 interface for Win NT & 2000
Used output format : User Defined Encoder
Selected bitrate : 320 kBit/s
Quality : High
Add ID3 tag : No
Command line compressor : C:\Program Files\Exact Audio Copy\Flac\flac.exe
Additional command line options : -V -8 -T "Date=%year%" -T "Genre=%genre%" %source%
TOC of the extracted CD
Track | Start | Length | Start sector | End sector
---------------------------------------------------------
1 | 0:00.00 | 7:39.07 | 0 | 34431
2 | 7:39.07 | 8:45.74 | 34432 | 73880
3 | 16:25.06 | 1:37.15 | 73881 | 81170
4 | 18:02.21 | 10:21.66 | 81171 | 127811
5 | 28:24.12 | 4:46.23 | 127812 | 149284
6 | 33:10.35 | 5:07.39 | 149285 | 172348
7 | 38:17.74 | 3:22.49 | 172349 | 187547
8 | 41:40.48 | 10:28.53 | 187548 | 234700
9 | 52:09.26 | 4:44.08 | 234701 | 256008
Range status and errors
Selected range
Filename K:\ЕАС\Enten Eller & Tim Berne - Auto da fe.wav
Peak level 97.7 %
Extraction speed 1.9 X
Range quality 100.0 %
Test CRC 789C3CF8
Copy CRC 789C3CF8
Copy OK
No errors occurred
AccurateRip summary
Track 1 not present in database
Track 2 not present in database
Track 3 not present in database
Track 4 not present in database
Track 5 not present in database
Track 6 not present in database
Track 7 not present in database
Track 8 not present in database
Track 9 not present in database
None of the tracks are present in the AccurateRip database
End of status report
==== Log checksum 0CBF95C3BD722E1B7F8BFC36FA2ED18FEFB12148BF1086C1F1F10FD546802FE8 ====
 
Содержание индексной карты (.CUE)
REM GENRE Jazz
REM DATE 2001
REM DISCID 7C0D5509
REM COMMENT "ExactAudioCopy v1.0b2"
PERFORMER "Enten Eller & Tim Berne"
TITLE "Auto da fe"
FILE "Enten Eller & Tim Berne - Auto da fe.flac" WAVE
TRACK 01 AUDIO
TITLE "Konos"
PERFORMER "Enten Eller & Tim Berne"
ISRC 000000000000
INDEX 01 00:00:00
TRACK 02 AUDIO
TITLE "Torquemada"
PERFORMER "Enten Eller & Tim Berne"
ISRC 000000000000
INDEX 00 07:35:37
INDEX 01 07:39:07
TRACK 03 AUDIO
TITLE "Amras"
PERFORMER "Enten Eller & Tim Berne"
ISRC 000000000000
INDEX 00 16:21:36
INDEX 01 16:25:06
TRACK 04 AUDIO
TITLE "Pulizie di Natale"
PERFORMER "Enten Eller & Tim Berne"
ISRC 000000000000
INDEX 00 17:58:51
INDEX 01 18:02:21
TRACK 05 AUDIO
TITLE "Traveling Day"
PERFORMER "Enten Eller & Tim Berne"
ISRC 000000000000
INDEX 00 28:20:42
INDEX 01 28:24:12
TRACK 06 AUDIO
TITLE "Veleno per topi"
PERFORMER "Enten Eller & Tim Berne"
ISRC 000000000000
INDEX 00 33:06:65
INDEX 01 33:10:35
TRACK 07 AUDIO
TITLE "Rosencrantz e Guildenstern"
PERFORMER "Enten Eller & Tim Berne"
ISRC 000000000000
INDEX 00 38:14:29
INDEX 01 38:17:74
TRACK 08 AUDIO
TITLE "7/13"
PERFORMER "Enten Eller & Tim Berne"
ISRC 000000000000
INDEX 00 41:37:03
INDEX 01 41:40:48
TRACK 09 AUDIO
TITLE "Ri.Co."
PERFORMER "Enten Eller & Tim Berne"
ISRC 000000000000
INDEX 00 52:05:56
INDEX 01 52:09:26
Доп. информация: Recorded on March 30 & 31 and May 5, 2000
 
Состав
Tim Berne: alto;
Alberto Mandarini: trumpet, flugelhorn;
Maurizio Brunod: guitars, loop;
Giovanni Maier: bass;
Massimo Barbiero: drums, vibes, gamelan, percussion.
Any questions -> support@pro-jazz.com. По всем вопросам пишите -> support@pro-jazz.com
03:16
183
Нет комментариев. Ваш будет первым!