Вы используете незарегистрированную версию компонента "Вкладки"!

Поиск

(Avant-Garde Jazz, Modern Creative) Steve Lehman - Demian As Posthuman - 2005, FLAC (tracks+.cue), lossless

(Avant-Garde Jazz, Modern Creative) Steve Lehman - Demian As Posthuman - 2005, FLAC (tracks+.cue), lossless
Треклист:
•Steve Lehman - Demian As Posthuman•
Жанр: Avant-Garde Jazz, Modern Creative
Год издания: 2005
Издатель (лейбл): Pi Recordings
Номер по каталогу: Pi17
Аудиокодек: FLAC (*.flac)
Тип рипа: tracks+.cue
Битрейт аудио: lossless
Продолжительность: 00:36:30
Источник (релизер): tiburon
Наличие сканов в содержимом раздачи: да
Треклист:
01. Vapors [02:10]
02. Demian [05:56]
03. Damage Mobility - Acoustic [01:17]
04. Damage Mobility [03:55]
05. Cognition - Curtis Duncan [02:33]
06. Cognition - Drew Hill [02:33]
07. Logic - Meshell [02:58]
08. Logic - Tyshawn [02:39]
09. Cognition - Ernest Givens [02:36]
10. Cognition - Haywood Jeffires [02:11]
11. Emphonic [04:06]
12. Community [03:29]
 
Лог создания рипа
Exact Audio Copy V1.0 beta 3 from 29. August 2011
EAC extraction logfile from 11. February 2013, 20:00
Steve Lehman / Demian as Posthuman
Used drive : HL-DT-STDVDRAM GH20NS10 Adapter: 2 ID: 1
Read mode : Secure
Utilize accurate stream : Yes
Defeat audio cache : Yes
Make use of C2 pointers : No
Read offset correction : 667
Overread into Lead-In and Lead-Out : No
Fill up missing offset samples with silence : Yes
Delete leading and trailing silent blocks : No
Null samples used in CRC calculations : Yes
Used interface : Native Win32 interface for Win NT & 2000
Gap handling : Appended to previous track
Used output format : User Defined Encoder
Selected bitrate : 1024 kBit/s
Quality : High
Add ID3 tag : No
Command line compressor : C:\Program Files\Exact Audio Copy\Flac\flac.exe
Additional command line options : -8 -V -T "ARTIST=%artist%" -T "TITLE=%title%" -T "ALBUM=%albumtitle%" -T "DATE=%year%" -T "TRACKNUMBER=%tracknr%" -T "TOTALTRACKS=%numtracks%" -T "GENRE=%genre%" -T "ALBUMARTIST=%albumartist%" -T "ALBUM ARTIST=%albumartist%" -T "COMMENT=EAC Secure Mode, Test & Copy, AccurateRip, FLAC -8" %source%
TOC of the extracted CD
Track | Start | Length | Start sector | End sector
---------------------------------------------------------
1 | 0:00.00 | 2:10.57 | 0 | 9806
2 | 2:10.57 | 5:56.59 | 9807 | 36565
3 | 8:07.41 | 1:17.39 | 36566 | 42379
4 | 9:25.05 | 3:55.50 | 42380 | 60054
5 | 13:20.55 | 2:33.60 | 60055 | 71589
6 | 15:54.40 | 2:33.57 | 71590 | 83121
7 | 18:28.22 | 2:58.44 | 83122 | 96515
8 | 21:26.66 | 2:39.03 | 96516 | 108443
9 | 24:05.69 | 2:36.21 | 108444 | 120164
10 | 26:42.15 | 2:11.31 | 120165 | 130020
11 | 28:53.46 | 4:06.55 | 130021 | 148525
12 | 33:00.26 | 3:29.67 | 148526 | 164267
Track 1
Filename D:\Steve Lehman - Demian As Posthuman (2005) [FLAC]\01 - Vapors.wav
Pre-gap length 0:00:02.00
Peak level 98.8 %
Extraction speed 2.7 X
Track quality 100.0 %
Test CRC 7744C1CE
Copy CRC 7744C1CE
Accurately ripped (confidence 2) [97BFC74B] (AR v2)
Copy OK
Track 2
Filename D:\Steve Lehman - Demian As Posthuman (2005) [FLAC]\02 - Demian.wav
Peak level 98.8 %
Extraction speed 4.1 X
Track quality 100.0 %
Test CRC 417D4528
Copy CRC 417D4528
Accurately ripped (confidence 2) [95B63B76] (AR v2)
Copy OK
Track 3
Filename D:\Steve Lehman - Demian As Posthuman (2005) [FLAC]\03 - Damage Mobility - Acoustic.wav
Peak level 87.6 %
Extraction speed 3.3 X
Track quality 100.0 %
Test CRC 494D9B67
Copy CRC 494D9B67
Accurately ripped (confidence 2) [CFAE471A] (AR v2)
Copy OK
Track 4
Filename D:\Steve Lehman - Demian As Posthuman (2005) [FLAC]\04 - Damage Mobility.wav
Peak level 98.8 %
Extraction speed 4.9 X
Track quality 100.0 %
Test CRC EFBDA1EB
Copy CRC EFBDA1EB
Accurately ripped (confidence 2) [3082A384] (AR v2)
Copy OK
Track 5
Filename D:\Steve Lehman - Demian As Posthuman (2005) [FLAC]\05 - Cognition - Curtis Duncan.wav
Peak level 98.8 %
Extraction speed 4.0 X
Track quality 100.0 %
Test CRC 2BB91577
Copy CRC 2BB91577
Accurately ripped (confidence 2) [99983CB7] (AR v2)
Copy OK
Track 6
Filename D:\Steve Lehman - Demian As Posthuman (2005) [FLAC]\06 - Cognition - Drew Hill.wav
Peak level 98.8 %
Extraction speed 5.0 X
Track quality 100.0 %
Test CRC D4F01F74
Copy CRC D4F01F74
Accurately ripped (confidence 2) [B80C5E27] (AR v2)
Copy OK
Track 7
Filename D:\Steve Lehman - Demian As Posthuman (2005) [FLAC]\07 - Logic - Meshell.wav
Peak level 98.8 %
Extraction speed 4.4 X
Track quality 99.9 %
Test CRC 971F9FDA
Copy CRC 971F9FDA
Accurately ripped (confidence 2) [8374DF69] (AR v2)
Copy OK
Track 8
Filename D:\Steve Lehman - Demian As Posthuman (2005) [FLAC]\08 - Logic - Tyshawn.wav
Peak level 98.8 %
Extraction speed 4.5 X
Track quality 99.9 %
Test CRC 66E483FB
Copy CRC 66E483FB
Accurately ripped (confidence 2) [F98A4D54] (AR v2)
Copy OK
Track 9
Filename D:\Steve Lehman - Demian As Posthuman (2005) [FLAC]\09 - Cognition - Ernest Givens.wav
Peak level 98.8 %
Extraction speed 5.8 X
Track quality 100.0 %
Test CRC 9E3E0119
Copy CRC 9E3E0119
Accurately ripped (confidence 2) [A93C7D4A] (AR v2)
Copy OK
Track 10
Filename D:\Steve Lehman - Demian As Posthuman (2005) [FLAC]\10 - Cognition - Haywood Jeffires.wav
Peak level 98.8 %
Extraction speed 5.6 X
Track quality 100.0 %
Test CRC 1AE13474
Copy CRC 1AE13474
Accurately ripped (confidence 2) [6C8820F2] (AR v2)
Copy OK
Track 11
Filename D:\Steve Lehman - Demian As Posthuman (2005) [FLAC]\11 - Emphonic.wav
Pre-gap length 0:00:00.20
Peak level 98.8 %
Extraction speed 6.7 X
Track quality 100.0 %
Test CRC 405C1CD5
Copy CRC 405C1CD5
Accurately ripped (confidence 2) [8EA3F9F3] (AR v2)
Copy OK
Track 12
Filename D:\Steve Lehman - Demian As Posthuman (2005) [FLAC]\12 - Community.wav
Peak level 98.8 %
Extraction speed 7.0 X
Track quality 100.0 %
Test CRC 64F1D03A
Copy CRC 64F1D03A
Accurately ripped (confidence 2) [626FF3F0] (AR v2)
Copy OK
All tracks accurately ripped
No errors occurred
End of status report
==== Log checksum FF0611D9DFE3293DEAD10A4707415C79ACB4C0CBD2CA66C16E69412AB6920BD5 ====
 
Содержание индексной карты (.CUE)
REM GENRE Jazz
REM DATE 2005
REM DISCID A2088E0C
REM COMMENT "ExactAudioCopy v1.0b3"
PERFORMER "Steve Lehman"
TITLE "Demian as Posthuman"
FILE "01 - Vapors.wav" WAVE
TRACK 01 AUDIO
TITLE "Vapors"
PERFORMER "Steve Lehman"
INDEX 01 00:00:00
FILE "02 - Demian.wav" WAVE
TRACK 02 AUDIO
TITLE "Demian"
PERFORMER "Steve Lehman"
INDEX 01 00:00:00
FILE "03 - Damage Mobility - Acoustic.wav" WAVE
TRACK 03 AUDIO
TITLE "Damage Mobility - Acoustic"
PERFORMER "Steve Lehman"
INDEX 01 00:00:00
FILE "04 - Damage Mobility.wav" WAVE
TRACK 04 AUDIO
TITLE "Damage Mobility"
PERFORMER "Steve Lehman"
INDEX 01 00:00:00
FILE "05 - Cognition - Curtis Duncan.wav" WAVE
TRACK 05 AUDIO
TITLE "Cognition - Curtis Duncan"
PERFORMER "Steve Lehman"
INDEX 01 00:00:00
FILE "06 - Cognition - Drew Hill.wav" WAVE
TRACK 06 AUDIO
TITLE "Cognition - Drew Hill"
PERFORMER "Steve Lehman"
INDEX 01 00:00:00
FILE "07 - Logic - Meshell.wav" WAVE
TRACK 07 AUDIO
TITLE "Logic - Meshell"
PERFORMER "Steve Lehman"
INDEX 01 00:00:00
FILE "08 - Logic - Tyshawn.wav" WAVE
TRACK 08 AUDIO
TITLE "Logic - Tyshawn"
PERFORMER "Steve Lehman"
INDEX 01 00:00:00
FILE "09 - Cognition - Ernest Givens.wav" WAVE
TRACK 09 AUDIO
TITLE "Cognition - Ernest Givens"
PERFORMER "Steve Lehman"
INDEX 01 00:00:00
FILE "10 - Cognition - Haywood Jeffires.wav" WAVE
TRACK 10 AUDIO
TITLE "Cognition - Haywood Jeffires"
PERFORMER "Steve Lehman"
INDEX 01 00:00:00
TRACK 11 AUDIO
TITLE "Emphonic"
PERFORMER "Steve Lehman"
INDEX 00 02:11:11
FILE "11 - Emphonic.wav" WAVE
INDEX 01 00:00:00
FILE "12 - Community.wav" WAVE
TRACK 12 AUDIO
TITLE "Community"
PERFORMER "Steve Lehman"
INDEX 01 00:00:00
 
Состав
Personnel:
Steve Lehman - alto and soprano saxes, sequencing, drum programming
Meshell Ndegeocello - electric bass
Vijay Iyer - piano
Eric McPherson - drums
Tyshawn Sorey - drums
Jahi Lake - turntable and electronics
Any questions -> support@pro-jazz.com. По всем вопросам пишите -> support@pro-jazz.com
09:01
174
Нет комментариев. Ваш будет первым!