Вы используете незарегистрированную версию компонента "Вкладки"!

Поиск

(Avant-Garde, Contemporary Jazz) David Murray Power Quartet - Like a Kiss That Never Ends (Como un beso que nunca se acaba) - 2001, FLAC (tracks+.cue), lossless

(Avant-Garde, Contemporary Jazz) David Murray Power Quartet - Like a Kiss That Never Ends (Como un beso que nunca se acaba) - 2001, FLAC (tracks+.cue), lossless
Треклист:
David Murray Power Quartet / Like a Kiss That Never Ends (Como un beso que nunca se acaba)
Жанр: Avant-Garde, Contemporary Jazz
Страна-производитель диска: Canada
Год издания: 2001
Издатель (лейбл): Justin Time
Номер по каталогу: JUST 153-2
Аудиокодек: FLAC (*.flac)
Тип рипа: tracks+.cue
Битрейт аудио: lossless
Продолжительность: 1:01:17
Источник (релизер): Max Monteiro
Наличие сканов в содержимом раздачи: нет
Треклист:
1. Blues for Felix (David Murray) 7:23
2. Like a Kiss That Never Ends (Como un beso que nunca se acaba) (for Valerie) (David Murray) 12:48
3. Dedication (Ray Drummond) 7:17
4. Suki Suki Now (David Murray) 9:45
5. Ruben’s Theme Song (David Murray) 6:31
6. Mo’Bass (for The Bulldog) (David Murray) 7:42
7. Let’s Cool One (Thelonious Monk) 9:51
 
Лог создания рипа
Exact Audio Copy V1.0 beta 3 from 29. August 2011
EAC extraction logfile from 11. February 2013, 11:41
David Murray Power Quartet / Like a Kiss That Never Ends (Como un beso que nunca se acaba)
Used drive : SlimtypeeNAU508 5 Adapter: 1 ID: 0
Read mode : Secure
Utilize accurate stream : Yes
Defeat audio cache : Yes
Make use of C2 pointers : No
Read offset correction : 6
Overread into Lead-In and Lead-Out : No
Fill up missing offset samples with silence : Yes
Delete leading and trailing silent blocks : No
Null samples used in CRC calculations : Yes
Used interface : Native Win32 interface for Win NT & 2000
Gap handling : Appended to previous track
Used output format : User Defined Encoder
Selected bitrate : 768 kBit/s
Quality : High
Add ID3 tag : No
Command line compressor : C:\Program Files (x86)\Exact Audio Copy\Flac\flac.exe
Additional command line options : -8 -V -T "ARTIST=%artist%" -T "TITLE=%title%" -T "ALBUM=%albumtitle%" -T "DATE=%year%" -T "TRACKNUMBER=%tracknr%" -T "GENRE=%genre%" -T "PERFORMER=%albuminterpret%" -T "COMPOSER=%composer%" %haslyrics%--tag-from-file=LYRICS="%lyricsfile%"%haslyrics% -T "ALBUMARTIST=%albumartist%" -T "DISCNUMBER=%cdnumber%" -T "TOTALDISCS=%totalcds%" -T "TOTALTRACKS=%numtracks%" -T "COMMENT=%comment%" %source% -o %dest%
TOC of the extracted CD
Track | Start | Length | Start sector | End sector
---------------------------------------------------------
1 | 0:00.00 | 7:22.50 | 0 | 33199
2 | 7:22.50 | 12:48.30 | 33200 | 90829
3 | 20:11.05 | 7:16.57 | 90830 | 123586
4 | 27:27.62 | 9:44.38 | 123587 | 167424
5 | 37:12.25 | 6:31.30 | 167425 | 196779
6 | 43:43.55 | 7:42.10 | 196780 | 231439
7 | 51:25.65 | 9:51.12 | 231440 | 275776
Track 1
Filename C:\EAC rips\01 - Blues for Felix.wav
Pre-gap length 0:00:02.00
Peak level 100.0 %
Extraction speed 1.2 X
Track quality 100.0 %
Test CRC A3F6AA59
Copy CRC A3F6AA59
Accurately ripped (confidence 7) [D4395C67] (AR v1)
Copy OK
Track 2
Filename C:\EAC rips\02 - Like a Kiss That Never Ends (Como un beso que nunca se acaba) (for Valerie).wav
Pre-gap length 0:00:01.05
Peak level 100.0 %
Extraction speed 1.6 X
Track quality 100.0 %
Test CRC CA625327
Copy CRC CA625327
Accurately ripped (confidence 7) [99D1F2B9] (AR v1)
Copy OK
Track 3
Filename C:\EAC rips\03 - Dedication.wav
Pre-gap length 0:00:03.20
Peak level 100.0 %
Extraction speed 1.8 X
Track quality 100.0 %
Test CRC CFE2393F
Copy CRC CFE2393F
Accurately ripped (confidence 7) [04E04E44] (AR v1)
Copy OK
Track 4
Filename C:\EAC rips\04 - Suki Suki Now.wav
Pre-gap length 0:00:02.05
Peak level 100.0 %
Extraction speed 2.0 X
Track quality 100.0 %
Test CRC 6EDA16ED
Copy CRC 6EDA16ED
Accurately ripped (confidence 7) [577794EE] (AR v1)
Copy OK
Track 5
Filename C:\EAC rips\05 - Ruben's Theme Song.wav
Pre-gap length 0:00:01.40
Peak level 100.0 %
Extraction speed 1.9 X
Track quality 99.9 %
Test CRC DAF5B330
Copy CRC DAF5B330
Accurately ripped (confidence 7) [98D7E61D] (AR v1)
Copy OK
Track 6
Filename C:\EAC rips\06 - Mo' Bass (for The Bulldog).wav
Pre-gap length 0:00:01.18
Peak level 100.0 %
Extraction speed 2.1 X
Track quality 99.9 %
Test CRC 12F7A34D
Copy CRC 12F7A34D
Accurately ripped (confidence 7) [F6FDC2A1] (AR v1)
Copy OK
Track 7
Filename C:\EAC rips\07 - Let's Cool One.wav
Pre-gap length 0:00:01.35
Peak level 100.0 %
Extraction speed 2.4 X
Track quality 100.0 %
Test CRC E094F695
Copy CRC E094F695
Accurately ripped (confidence 6) [55BC2A8F] (AR v1)
Copy OK
All tracks accurately ripped
No errors occurred
End of status report
---- CUETools DB Plugin V2.1.4
[CTDB TOCID: Ed8O9IWQ05xcOHOZkq1d8XNw_Ts-] found
Submit result: already submitted
Track | CTDB Status
1 | (3/3) Accurately ripped
2 | (3/3) Accurately ripped
3 | (3/3) Accurately ripped
4 | (3/3) Accurately ripped
5 | (3/3) Accurately ripped
6 | (3/3) Accurately ripped
7 | (3/3) Accurately ripped
==== Log checksum 082A074F9AEE5D7DEE6303C53E2B06E34447990717A814F1328B302AA900D39F ====
 
Содержание индексной карты (.CUE)
REM GENRE Jazz
REM DATE 2001
REM DISCID 550E5D07
REM COMMENT "ExactAudioCopy v1.0b3"
PERFORMER "David Murray Power Quartet"
TITLE "Like a Kiss That Never Ends (Como un beso que nunca se acaba)"
FILE "01 - Blues for Felix.wav" WAVE
TRACK 01 AUDIO
TITLE "Blues for Felix"
PERFORMER "David Murray Power Quartet"
INDEX 01 00:00:00
TRACK 02 AUDIO
TITLE "Like a Kiss That Never Ends (Como un beso que nunca se acaba) (for Valerie)"
PERFORMER "David Murray Power Quartet"
INDEX 00 07:21:45
FILE "02 - Like a Kiss That Never Ends (Como un beso que nunca se acaba) (for Valerie).wav" WAVE
INDEX 01 00:00:00
TRACK 03 AUDIO
TITLE "Dedication"
PERFORMER "David Murray Power Quartet"
INDEX 00 12:45:10
FILE "03 - Dedication.wav" WAVE
INDEX 01 00:00:00
TRACK 04 AUDIO
TITLE "Suki Suki Now"
PERFORMER "David Murray Power Quartet"
INDEX 00 07:14:52
FILE "04 - Suki Suki Now.wav" WAVE
INDEX 01 00:00:00
TRACK 05 AUDIO
TITLE "Ruben's Theme Song"
PERFORMER "David Murray Power Quartet"
INDEX 00 09:42:73
FILE "05 - Ruben's Theme Song.wav" WAVE
INDEX 01 00:00:00
TRACK 06 AUDIO
TITLE "Mo' Bass (for The Bulldog)"
PERFORMER "David Murray Power Quartet"
INDEX 00 06:30:12
FILE "06 - Mo' Bass (for The Bulldog).wav" WAVE
INDEX 01 00:00:00
TRACK 07 AUDIO
TITLE "Let's Cool One"
PERFORMER "David Murray Power Quartet"
INDEX 00 07:40:50
FILE "07 - Let's Cool One.wav" WAVE
INDEX 01 00:00:00
Доп. информация: Recorded at Sound on Sound, N.Y.C., June 5th and 6th, 2000.
 
Состав
David Murray – Tenor Sax, Bass Clarinet
John Hicks – Piano
Ray Drummond – Bass
Andrew Cyrille – Drums
Any questions -> support@pro-jazz.com. По всем вопросам пишите -> support@pro-jazz.com
09:02
194
Нет комментариев. Ваш будет первым!