Вы используете незарегистрированную версию компонента "Вкладки"!

Поиск

(Avant-Garde Jazz, Modern Creative, Percussion Music) [CD] P.O. Jorgens - The Technology Of Touch - 1997, FLAC (tracks+.cue), lossless

(Avant-Garde Jazz, Modern Creative, Percussion Music) [CD] P.O. Jorgens - The Technology Of Touch - 1997, FLAC (tracks+.cue), lossless
Треклист:
P.O. Jorgens / The Technology Of Touch
Жанр: Avant-Garde Jazz, Modern Creative, Percussion Music
Носитель: CD
Страна-производитель диска (релиза): Denmark
Год издания: 1997
Издатель (лейбл): Ninth World Records
Номер по каталогу: NWM008CD
Страна исполнителя (группы): Denmark
Аудиокодек: FLAC (*.flac)
Тип рипа: tracks+.cue
Битрейт аудио: lossless
Продолжительность: 61:15
Источник (релизер): свой фирменный диск
Наличие сканов в содержимом раздачи:
Треклист:
1. A Medley Of Our Time 4:58
2. The Adventure Of Hale Bob 6:18
3. Shopping With Renee 4:10
4. Rigtige Maend Far Pip 4:35
5. The Time Is Now 5:43
6. Numskull 2:39
7. The Technology Of Touch 4:24
8. Water Bugs 4:55
9. Life In A Spider's Web 2:30
10. Connecting With People (The Extreme Political Correctness) 3:25
11. The Joy Of Feeding Birds 6:12
12. Natural Heating System (Music Minus One) 3:26
13. Flower Market (A Joyfull Morning With Niels & Dan In N.Y.) 7:16
 
Лог создания рипа
Exact Audio Copy V1.0 beta 3 from 29. August 2011
EAC extraction logfile from 23. December 2014, 22:56
P.O. Jorgens / The Technology Of Touch
Used drive : PIONEER DVD-RW DVR-115D Adapter: 0 ID: 0
Read mode : Secure
Utilize accurate stream : Yes
Defeat audio cache : Yes
Make use of C2 pointers : No
Read offset correction : 48
Overread into Lead-In and Lead-Out : No
Fill up missing offset samples with silence : Yes
Delete leading and trailing silent blocks : No
Null samples used in CRC calculations : Yes
Used interface : Installed external ASPI interface
Gap handling : Appended to previous track
Used output format : User Defined Encoder
Selected bitrate : 768 kBit/s
Quality : High
Add ID3 tag : No
Command line compressor : C:\Program Files\Exact Audio Copy\Flac\flac.exe
Additional command line options : -6 -V -T "ARTIST=%artist%" -T "TITLE=%title%" -T "ALBUM=%albumtitle%" -T "DATE=%year%" -T "TRACKNUMBER=%tracknr%" -T "GENRE=%genre%" -T "COMMENT=%comment%" -T "BAND=%albuminterpret%" -T "COMPOSER=%composer%" %haslyrics%--tag-from-file=LYRICS="%lyricsfile%"%haslyrics% -T "DISCNUMBER=%cdnumber%" -T "TOTALDISCS=%totalcds%" -T "TOTALTRACKS=%numtracks%" %hascover%--picture="%coverfile%"%hascover% %source% -o %dest%
TOC of the extracted CD
Track | Start | Length | Start sector | End sector
---------------------------------------------------------
1 | 0:00.00 | 5:01.69 | 0 | 22643
2 | 5:01.69 | 6:22.63 | 22644 | 51356
3 | 11:24.57 | 4:14.25 | 51357 | 70431
4 | 15:39.07 | 4:38.65 | 70432 | 91346
5 | 20:17.72 | 5:47.08 | 91347 | 117379
6 | 26:05.05 | 2:40.72 | 117380 | 129451
7 | 28:46.02 | 4:27.33 | 129452 | 149509
8 | 33:13.35 | 4:56.25 | 149510 | 171734
9 | 38:09.60 | 2:34.00 | 171735 | 183284
10 | 40:43.60 | 3:27.70 | 183285 | 198879
11 | 44:11.55 | 6:15.52 | 198880 | 227056
12 | 50:27.32 | 3:30.00 | 227057 | 242806
13 | 53:57.32 | 7:17.53 | 242807 | 275634
Track 1
Filename D:\zzz\01 - A Medley Of Our Time.wav
Pre-gap length 0:00:02.00
Peak level 93.8 %
Extraction speed 4.7 X
Track quality 100.0 %
Test CRC 0FB32726
Copy CRC 0FB32726
Track not present in AccurateRip database
Copy OK
Track 2
Filename D:\zzz\02 - The Adventure Of Hale Bob.wav
Pre-gap length 0:00:02.49
Peak level 90.7 %
Extraction speed 5.5 X
Track quality 100.0 %
Test CRC 662AD744
Copy CRC 662AD744
Track not present in AccurateRip database
Copy OK
Track 3
Filename D:\zzz\03 - Shopping With Renee.wav
Pre-gap length 0:00:03.07
Peak level 99.0 %
Extraction speed 5.8 X
Track quality 100.0 %
Test CRC 33E60FFE
Copy CRC 33E60FFE
Track not present in AccurateRip database
Copy OK
Track 4
Filename D:\zzz\04 - Rigtige Maend Far Pip.wav
Pre-gap length 0:00:02.72
Peak level 73.9 %
Extraction speed 5.6 X
Track quality 99.9 %
Test CRC BFE91B10
Copy CRC BFE91B10
Track not present in AccurateRip database
Copy OK
Track 5
Filename D:\zzz\05 - The Time Is Now.wav
Pre-gap length 0:00:02.30
Peak level 92.7 %
Extraction speed 6.8 X
Track quality 100.0 %
Test CRC 40375957
Copy CRC 40375957
Track not present in AccurateRip database
Copy OK
Track 6
Filename D:\zzz\06 - Numskull.wav
Pre-gap length 0:00:02.15
Peak level 93.3 %
Extraction speed 6.3 X
Track quality 100.0 %
Test CRC AC4B687D
Copy CRC AC4B687D
Track not present in AccurateRip database
Copy OK
Track 7
Filename D:\zzz\07 - The Technology Of Touch.wav
Pre-gap length 0:00:01.05
Peak level 90.9 %
Extraction speed 7.1 X
Track quality 100.0 %
Test CRC A9D0C1D5
Copy CRC A9D0C1D5
Track not present in AccurateRip database
Copy OK
Track 8
Filename D:\zzz\08 - Water Bugs.wav
Pre-gap length 0:00:02.20
Peak level 96.4 %
Extraction speed 7.5 X
Track quality 100.0 %
Test CRC 9CE1C3F8
Copy CRC 9CE1C3F8
Track not present in AccurateRip database
Copy OK
Track 9
Filename D:\zzz\09 - Life In A Spider's Web.wav
Pre-gap length 0:00:01.60
Peak level 97.1 %
Extraction speed 5.9 X
Track quality 99.9 %
Test CRC 4C2D9830
Copy CRC 4C2D9830
Track not present in AccurateRip database
Copy OK
Track 10
Filename D:\zzz\10 - Connecting With People (The Extreme Political Correctness).wav
Pre-gap length 0:00:02.43
Peak level 93.7 %
Extraction speed 7.3 X
Track quality 100.0 %
Test CRC A9032EFA
Copy CRC A9032EFA
Track not present in AccurateRip database
Copy OK
Track 11
Filename D:\zzz\11 - The Joy Of Feeding Birds.wav
Pre-gap length 0:00:00.58
Peak level 90.2 %
Extraction speed 8.4 X
Track quality 100.0 %
Test CRC 57B86700
Copy CRC 57B86700
Track not present in AccurateRip database
Copy OK
Track 12
Filename D:\zzz\12 - Natural Heating System (Music Minus One).wav
Pre-gap length 0:00:01.70
Peak level 93.1 %
Extraction speed 8.1 X
Track quality 100.0 %
Test CRC 3E10FFEA
Copy CRC 3E10FFEA
Track not present in AccurateRip database
Copy OK
Track 13
Filename D:\zzz\13 - Flower Market (A Joyfull Morning With Niels & Dan In N.Y.).wav
Pre-gap length 0:00:02.20
Peak level 84.8 %
Extraction speed 9.1 X
Track quality 100.0 %
Test CRC D66E38C7
Copy CRC D66E38C7
Track not present in AccurateRip database
Copy OK
None of the tracks are present in the AccurateRip database
No errors occurred
End of status report
==== Log checksum F77B59D6BB4F4EED0E77E890F235DF15345FF9BAAB6BA49B8AEB4C28887E97A4 ====
 
Содержание индексной карты (.CUE)
REM GENRE "Percussion Music"
REM DATE 1997
REM DISCID C00E5B0D
REM COMMENT "ExactAudioCopy v1.0b3"
PERFORMER "P.O. Jorgens"
TITLE "The Technology Of Touch"
FILE "01 - A Medley Of Our Time.wav" WAVE
TRACK 01 AUDIO
TITLE "A Medley Of Our Time"
PERFORMER "P.O. Jorgens"
INDEX 01 00:00:00
TRACK 02 AUDIO
TITLE "The Adventure Of Hale Bob"
PERFORMER "P.O. Jorgens"
INDEX 00 04:59:20
FILE "02 - The Adventure Of Hale Bob.wav" WAVE
INDEX 01 00:00:00
TRACK 03 AUDIO
TITLE "Shopping With Renee"
PERFORMER "P.O. Jorgens"
INDEX 00 06:19:56
FILE "03 - Shopping With Renee.wav" WAVE
INDEX 01 00:00:00
TRACK 04 AUDIO
TITLE "Rigtige Maend Far Pip"
PERFORMER "P.O. Jorgens"
INDEX 00 04:11:28
FILE "04 - Rigtige Maend Far Pip.wav" WAVE
INDEX 01 00:00:00
TRACK 05 AUDIO
TITLE "The Time Is Now"
PERFORMER "P.O. Jorgens"
INDEX 00 04:36:35
FILE "05 - The Time Is Now.wav" WAVE
INDEX 01 00:00:00
TRACK 06 AUDIO
TITLE "Numskull"
PERFORMER "P.O. Jorgens"
INDEX 00 05:44:68
FILE "06 - Numskull.wav" WAVE
INDEX 01 00:00:00
TRACK 07 AUDIO
TITLE "The Technology Of Touch"
PERFORMER "P.O. Jorgens"
INDEX 00 02:39:67
FILE "07 - The Technology Of Touch.wav" WAVE
INDEX 01 00:00:00
TRACK 08 AUDIO
TITLE "Water Bugs"
PERFORMER "P.O. Jorgens"
INDEX 00 04:25:13
FILE "08 - Water Bugs.wav" WAVE
INDEX 01 00:00:00
TRACK 09 AUDIO
TITLE "Life In A Spider's Web"
PERFORMER "P.O. Jorgens"
INDEX 00 04:54:40
FILE "09 - Life In A Spider's Web.wav" WAVE
INDEX 01 00:00:00
TRACK 10 AUDIO
TITLE "Connecting With People (The Extreme Political Correctness)"
PERFORMER "P.O. Jorgens"
INDEX 00 02:31:32
FILE "10 - Connecting With People (The Extreme Political Correctness).wav" WAVE
INDEX 01 00:00:00
TRACK 11 AUDIO
TITLE "The Joy Of Feeding Birds"
PERFORMER "P.O. Jorgens"
INDEX 00 03:27:12
FILE "11 - The Joy Of Feeding Birds.wav" WAVE
INDEX 01 00:00:00
TRACK 12 AUDIO
TITLE "Natural Heating System (Music Minus One)"
PERFORMER "P.O. Jorgens"
INDEX 00 06:13:57
FILE "12 - Natural Heating System (Music Minus One).wav" WAVE
INDEX 01 00:00:00
TRACK 13 AUDIO
TITLE "Flower Market (A Joyfull Morning With Niels & Dan In N.Y.)"
PERFORMER "P.O. Jorgens"
INDEX 00 03:27:55
FILE "13 - Flower Market (A Joyfull Morning With Niels & Dan In N.Y.).wav" WAVE
INDEX 01 00:00:00
 
Лог проверки качества
d:\>d:\aucdtect -d/-m0 d:\zzz\*.wav
auCDtect: CD records authenticity detector, version 0.8.2
Copyright (c) 2004 Oleg Berngardt. All rights reserved.
Copyright (c) 2004 Alexander Djourik. All rights reserved.
------------------------------------------------------------
Processing file: [01. A Medley Of Our Time.wav]
------------------------------------------------------------
This track looks like CDDA with probability 100%
------------------------------------------------------------
Processing file: [02. The Adventure Of Hale Bob.wav]
------------------------------------------------------------
This track looks like CDDA with probability 100%
------------------------------------------------------------
Processing file: [03. Shopping With Renee.wav]
------------------------------------------------------------
This track looks like CDDA with probability 100%
------------------------------------------------------------
Processing file: [04. Rigtige Maend Far Pip.wav]
------------------------------------------------------------
This track looks like CDDA with probability 100%
------------------------------------------------------------
Processing file: [05. The Time Is Now.wav]
------------------------------------------------------------
This track looks like CDDA with probability 100%
------------------------------------------------------------
Processing file: [06. Numskull.wav]
------------------------------------------------------------
This track looks like CDDA with probability 100%
------------------------------------------------------------
Processing file: [07. The Technology Of Touch.wav]
------------------------------------------------------------
This track looks like CDDA with probability 99%
------------------------------------------------------------
Processing file: [08. Water Bugs.wav]
------------------------------------------------------------
This track looks like CDDA with probability 99%
------------------------------------------------------------
Processing file: [09. Life In A Spider's Web.wav]
------------------------------------------------------------
This track looks like CDDA with probability 100%
------------------------------------------------------------
Processing file: [10. Connecting With People (The Extreme Political Correctness).wav]
------------------------------------------------------------
This track looks like CDDA with probability 99%
------------------------------------------------------------
Processing file: [11. The Joy Of Feeding Birds.wav]
------------------------------------------------------------
This track looks like CDDA with probability 100%
------------------------------------------------------------
Processing file: [12. Natural Heating System (Music Minus One).wav]
------------------------------------------------------------
This track looks like CDDA with probability 100%
------------------------------------------------------------
Processing file: [13. Flower Market (A Joyfull Morning With Niels & Dan In N.Y.).wav]
------------------------------------------------------------
This track looks like CDDA with probability 100%
------------------------------------------------------------
Final Conclusion:
------------------------------------------------------------
These tracks looks like CDDA with probability 100%
Доп. информация:
 
Album Info & Review
All music composed by P.O. Jorgens
Produced by P.O. Jorgens
Recorded & mixed February/March 1997 at Ninth World Music
Cover & layout by Renee Paaschburg
Photos:
Portrait - Nicolai Howalt
Wedding - Nana Reimers
P.O. 1962 - Annemarie Lund
Thanks to Kodas Blankbandsmidler for financial support
A record it's hard to describe and do justice to. Consisting essentially of all manner of percussion carefully arranged and orchestrated, displaying a fine ear for detail and a sure sense of rhythm and dramaturgy. Each piece explores a clear set of sonorities and developmental possibilities with considerable imagination and variety. It's not contemporary, ethnic, minimal, repetitive, indulgent, jazzy ... but I can't say what it is. - ReR Megacorp
 
Состав
All music performed by P.O. Jorgens & The Frydenlund Percussion Ensemble:
Bowed vibe (1,3), logdrum (1), vocals (1), darbuka (1), kalimba (1,12), tympani (1,3), steeldrum (1,8,13), metal bowls (1,5), percussion (1,2,3,4,5,6,9), marimba (2,3,4,9,11), waterphone (2), rusty steeldrum (2), cymbals (3,4), small tom (3), ballofon (3), vibe (4,9), metal scrap (4,10), spring box (4), bells (4,6,13), water percussion (5), floor gongs (5), bowed cymbals (5), bassdrum (6), bikehorns (6), small percussion (7), scrap (7), drums (12), small gongs (12,13), large gongs (13), spinning brass (13)
По всем вопросам пишите личное сообщение пользователю M0p94ok.
09:25
158
Нет комментариев. Ваш будет первым!