Вы используете незарегистрированную версию компонента "Вкладки"!

Поиск

(Avant-Garde Jazz, Free Improvisation) [CD] Sten Sandell - Frames - 1994, FLAC (tracks+.cue), lossless

(Avant-Garde Jazz, Free Improvisation) [CD] Sten Sandell - Frames - 1994, FLAC (tracks+.cue), lossless
Треклист:
Sten Sandell / Frames
Жанр: Avant-Garde Jazz, Free Improvisation
Носитель: CD
Страна-производитель диска (релиза): Sweden
Год издания: 1994
Издатель (лейбл): Bauta Records
Номер по каталогу: BAR 9402
Страна исполнителя (группы): Sweden
Аудиокодек: FLAC (*.flac)
Тип рипа: tracks+.cue
Битрейт аудио: lossless
Продолжительность: 53:05
Источник (релизер): свой фирменный диск
Наличие сканов в содержимом раздачи:
Треклист:
Scene 1
1. Frames In Eb 3:34
2. Frames In Frames 6:09
Scene 2
3. 5 + 6 + 7 4:32
4. Coming On The Hudson 6:13
Scene 3
5. The Hunt I 3:57
6. The Hunt II 7:45
7. The Hunt III 1:35
Scene 4
8. Hommage A... 6:00
9. Study No. 520 5:11
10. Before 3:50
11. Epilog 3:12
 
Лог создания рипа
Exact Audio Copy V1.0 beta 3 from 29. August 2011
EAC extraction logfile from 22. December 2014, 20:15
Sten Sandell / Frames
Used drive : TSSTcorpCDDVDW SH-222AB Adapter: 1 ID: 0
Read mode : Secure
Utilize accurate stream : Yes
Defeat audio cache : Yes
Make use of C2 pointers : No
Read offset correction : 6
Overread into Lead-In and Lead-Out : No
Fill up missing offset samples with silence : Yes
Delete leading and trailing silent blocks : No
Null samples used in CRC calculations : Yes
Used interface : Installed external ASPI interface
Gap handling : Appended to previous track
Used output format : User Defined Encoder
Selected bitrate : 768 kBit/s
Quality : High
Add ID3 tag : No
Command line compressor : C:\Program Files\Exact Audio Copy\Flac\flac.exe
Additional command line options : -6 -V -T "ARTIST=%artist%" -T "TITLE=%title%" -T "ALBUM=%albumtitle%" -T "DATE=%year%" -T "TRACKNUMBER=%tracknr%" -T "GENRE=%genre%" -T "COMMENT=%comment%" -T "BAND=%albuminterpret%" -T "COMPOSER=%composer%" %haslyrics%--tag-from-file=LYRICS="%lyricsfile%"%haslyrics% -T "DISCNUMBER=%cdnumber%" -T "TOTALDISCS=%totalcds%" -T "TOTALTRACKS=%numtracks%" %hascover%--picture="%coverfile%"%hascover% %source% -o %dest%
TOC of the extracted CD
Track | Start | Length | Start sector | End sector
---------------------------------------------------------
1 | 0:00.00 | 3:36.65 | 0 | 16264
2 | 3:36.65 | 6:21.20 | 16265 | 44859
3 | 9:58.10 | 4:33.40 | 44860 | 65374
4 | 14:31.50 | 6:27.02 | 65375 | 94401
5 | 20:58.52 | 3:57.20 | 94402 | 112196
6 | 24:55.72 | 7:46.33 | 112197 | 147179
7 | 32:42.30 | 1:52.25 | 147180 | 155604
8 | 34:34.55 | 6:09.30 | 155605 | 183309
9 | 40:44.10 | 5:15.40 | 183310 | 206974
10 | 45:59.50 | 3:54.07 | 206975 | 224531
11 | 49:53.57 | 3:11.10 | 224532 | 238866
Track 1
Filename D:\zzz\01 - Frames In Eb.wav
Pre-gap length 0:00:02.00
Peak level 99.9 %
Extraction speed 4.2 X
Track quality 100.0 %
Test CRC C776FA76
Copy CRC C776FA76
Accurately ripped (confidence 1) [6CFF2C59] (AR v1)
Copy OK
Track 2
Filename D:\zzz\02 - Frames In Frames.wav
Pre-gap length 0:00:01.40
Peak level 98.5 %
Extraction speed 5.1 X
Track quality 100.0 %
Test CRC 441FD7F8
Copy CRC 441FD7F8
Accurately ripped (confidence 1) [0AAE6147] (AR v1)
Copy OK
Track 3
Filename D:\zzz\03 - 5 + 6 + 7.wav
Pre-gap length 0:00:11.43
Peak level 65.4 %
Extraction speed 4.9 X
Track quality 99.9 %
Test CRC B718AFB6
Copy CRC B718AFB6
Accurately ripped (confidence 1) [8B38C554] (AR v1)
Copy OK
Track 4
Filename D:\zzz\04 - Coming On The Hudson.wav
Peak level 77.8 %
Extraction speed 6.2 X
Track quality 100.0 %
Test CRC 13EC41E9
Copy CRC 13EC41E9
Accurately ripped (confidence 1) [61A79D53] (AR v1)
Copy OK
Track 5
Filename D:\zzz\05 - The Hunt I.wav
Pre-gap length 0:00:12.02
Peak level 24.2 %
Extraction speed 6.3 X
Track quality 100.0 %
Test CRC 6778BD2F
Copy CRC 6778BD2F
Accurately ripped (confidence 1) [FEFFA5C6] (AR v1)
Copy OK
Track 6
Filename D:\zzz\06 - The Hunt II.wav
Peak level 88.5 %
Extraction speed 6.7 X
Track quality 99.9 %
Test CRC 7849C49E
Copy CRC 7849C49E
Accurately ripped (confidence 1) [0F7D450D] (AR v1)
Copy OK
Track 7
Filename D:\zzz\07 - The Hunt III.wav
Pre-gap length 0:00:01.03
Peak level 27.5 %
Extraction speed 6.1 X
Track quality 100.0 %
Test CRC C6397E1D
Copy CRC C6397E1D
Accurately ripped (confidence 1) [2DB14C89] (AR v1)
Copy OK
Track 8
Filename D:\zzz\08 - Hommage A....wav
Pre-gap length 0:00:15.50
Peak level 84.4 %
Extraction speed 7.6 X
Track quality 100.0 %
Test CRC 950DB93C
Copy CRC 950DB93C
Accurately ripped (confidence 1) [0DF5821A] (AR v1)
Copy OK
Track 9
Filename D:\zzz\09 - Study No. 520.wav
Pre-gap length 0:00:08.25
Peak level 45.7 %
Extraction speed 7.9 X
Track quality 100.0 %
Test CRC 89445092
Copy CRC 89445092
Accurately ripped (confidence 1) [625ECC0E] (AR v1)
Copy OK
Track 10
Filename D:\zzz\10 - Before.wav
Pre-gap length 0:00:03.58
Peak level 99.9 %
Extraction speed 7.8 X
Track quality 100.0 %
Test CRC B7E809D9
Copy CRC B7E809D9
Accurately ripped (confidence 1) [FD478DD4] (AR v1)
Copy OK
Track 11
Filename D:\zzz\11 - Epilog.wav
Pre-gap length 0:00:02.67
Peak level 24.3 %
Extraction speed 7.8 X
Track quality 100.0 %
Test CRC 465B9CCE
Copy CRC 465B9CCE
Accurately ripped (confidence 1) [7B7097E5] (AR v1)
Copy OK
All tracks accurately ripped
No errors occurred
End of status report
==== Log checksum 23DA69A516DFB29ECA3ED43488EC42118EFA8262A9E01D19A93E4020352272EB ====
 
Содержание индексной карты (.CUE)
REM GENRE "Contemporary Jazz"
REM DATE 1994
REM DISCID 9F0C700B
REM COMMENT "ExactAudioCopy v1.0b3"
PERFORMER "Sten Sandell"
TITLE "Frames"
FILE "01 - Frames In Eb.wav" WAVE
TRACK 01 AUDIO
TITLE "Frames In Eb"
PERFORMER "Sten Sandell"
INDEX 01 00:00:00
TRACK 02 AUDIO
TITLE "Frames In Frames"
PERFORMER "Sten Sandell"
INDEX 00 03:35:25
FILE "02 - Frames In Frames.wav" WAVE
INDEX 01 00:00:00
TRACK 03 AUDIO
TITLE "5 + 6 + 7"
PERFORMER "Sten Sandell"
INDEX 00 06:09:52
FILE "03 - 5 + 6 + 7.wav" WAVE
INDEX 01 00:00:00
FILE "04 - Coming On The Hudson.wav" WAVE
TRACK 04 AUDIO
TITLE "Coming On The Hudson"
PERFORMER "Sten Sandell"
INDEX 01 00:00:00
TRACK 05 AUDIO
TITLE "The Hunt I"
PERFORMER "Sten Sandell"
INDEX 00 06:15:00
FILE "05 - The Hunt I.wav" WAVE
INDEX 01 00:00:00
FILE "06 - The Hunt II.wav" WAVE
TRACK 06 AUDIO
TITLE "The Hunt II"
PERFORMER "Sten Sandell"
INDEX 01 00:00:00
TRACK 07 AUDIO
TITLE "The Hunt III"
PERFORMER "Sten Sandell"
INDEX 00 07:45:30
FILE "07 - The Hunt III.wav" WAVE
INDEX 01 00:00:00
TRACK 08 AUDIO
TITLE "Hommage A..."
PERFORMER "Sten Sandell"
INDEX 00 01:36:50
FILE "08 - Hommage A....wav" WAVE
INDEX 01 00:00:00
TRACK 09 AUDIO
TITLE "Study No. 520"
PERFORMER "Sten Sandell"
INDEX 00 06:01:05
FILE "09 - Study No. 520.wav" WAVE
INDEX 01 00:00:00
TRACK 10 AUDIO
TITLE "Before"
PERFORMER "Sten Sandell"
INDEX 00 05:11:57
FILE "10 - Before.wav" WAVE
INDEX 01 00:00:00
TRACK 11 AUDIO
TITLE "Epilog"
PERFORMER "Sten Sandell"
INDEX 00 03:51:15
FILE "11 - Epilog.wav" WAVE
INDEX 01 00:00:00
 
Лог проверки качества
d:\>d:\aucdtect -d/-m0 d:\zzz\*.wav
auCDtect: CD records authenticity detector, version 0.8.2
Copyright (c) 2004 Oleg Berngardt. All rights reserved.
Copyright (c) 2004 Alexander Djourik. All rights reserved.
------------------------------------------------------------
Processing file: [01. Frames In Eb.wav]
------------------------------------------------------------
This track looks like CDDA with probability 100%
------------------------------------------------------------
Processing file: [02. Frames In Frames.wav]
------------------------------------------------------------
This track looks like CDDA with probability 100%
------------------------------------------------------------
Processing file: [03. 5 + 6 + 7.wav]
------------------------------------------------------------
This track looks like CDDA with probability 100%
------------------------------------------------------------
Processing file: [04. Coming On The Hudson.wav]
------------------------------------------------------------
This track looks like CDDA with probability 100%
------------------------------------------------------------
Processing file: [05. The Hunt I.wav]
------------------------------------------------------------
This track looks like CDDA with probability 99%
------------------------------------------------------------
Processing file: [06. The Hunt II.wav]
------------------------------------------------------------
This track looks like CDDA with probability 100%
------------------------------------------------------------
Processing file: [07. The Hunt III.wav]
------------------------------------------------------------
This track looks like CDDA with probability 99%
------------------------------------------------------------
Processing file: [08. Hommage A....wav]
------------------------------------------------------------
This track looks like CDDA with probability 100%
------------------------------------------------------------
Processing file: [09. Study No. 520.wav]
------------------------------------------------------------
This track looks like CDDA with probability 100%
------------------------------------------------------------
Processing file: [10. Before.wav]
------------------------------------------------------------
This track looks like CDDA with probability 100%
------------------------------------------------------------
Processing file: [11. Epilog.wav]
------------------------------------------------------------
This track looks like CDDA with probability 99%
------------------------------------------------------------
Final Conclusion:
------------------------------------------------------------
These tracks looks like CDDA with probability 100%
Доп. информация:
 
Album Info
All compositions by Sten Sandell except 4. by Thelonious Monk
Recorded live 1994 at Lunnevad by Lars Jonsson except 5. and 7. by Sten Sandell
Digital editing by Niklas Billstrom
Produced by Sten Sandell and Lars Jonsson
Pictures by Inger Arvidsson
Portrait photo by Martin Skoog
The production was partly funded by the Swedish Council for Cultural Affairs
To Sanna, Vanja and Olivia
 
Состав
Sten Sandell: piano, harmonium, percussion and voice
По всем вопросам пишите личное сообщение пользователю M0p94ok.
09:24
199
Нет комментариев. Ваш будет первым!