Вы используете незарегистрированную версию компонента "Вкладки"!

Поиск

(Avant-Garde Jazz, Modern Creative) Louis Sclavis - Objets Bruts - 1999, FLAC (image+.cue), lossless

(Avant-Garde Jazz, Modern Creative) Louis Sclavis - Objets Bruts - 1999, FLAC (image+.cue), lossless
Треклист:
Louis Sclavis - Objets Bruts
Жанр: Avant-Garde Jazz, Modern Creative
Страна-производитель диска: Италия
Год издания: 1999
Издатель (лейбл): Musica Jazz
Номер по каталогу: MJCD-1125
Страна: Франция
Аудиокодек: FLAC (*.flac)
Тип рипа: image+.cue
Битрейт аудио: lossless
Продолжительность: 67:46
Источник (релизер): obelix (hqshare)
Наличие сканов в содержимом раздачи: нет
Треклист:
01. Bert (Merville) - 3:21
02. Sensible (Sclavis) - 9:49
03. Derniers regards (Sclavis) - 6:06
04. Qumran (Sclavis) - 7:58
05. Bafouée (Gilbert) - 12:45
06. Nandri (Sclavis) - 4:33
07. Weather Is Changing (Sclavis-Reijseger) - 8:59
08. Seconde (Pifarély) - 12:32
09. Beata (Sclavis) - 1:44
 
Лог создания рипа
Exact Audio Copy V0.99 prebeta 3 from 28. July 2007
EAC extraction logfile from 7. January 2008, 20:51
Louis Sclavis / Objets Bruts
Used drive : HL-DT-STCD-RW GCE-8525B Adapter: 1 ID: 0
Read mode : Secure
Utilize accurate stream : Yes
Defeat audio cache : Yes
Make use of C2 pointers : No
Combined read/write offset correction : 6
Overread into Lead-In and Lead-Out : No
Fill up missing offset samples with silence : Yes
Delete leading and trailing silent blocks : No
Null samples used in CRC calculations : No
Used interface : Installed external ASPI interface
Used output format : Internal WAV Routines
Sample format : 44.100 Hz; 16 Bit; Stereo
Use compression offset : 0
TOC of the extracted CD
Track | Start | Length | Start sector | End sector
---------------------------------------------------------
1 | 0:00.00 | 3:21.25 | 0 | 15099
2 | 3:21.25 | 9:48.40 | 15100 | 59239
3 | 13:09.65 | 6:06.35 | 59240 | 86724
4 | 19:16.25 | 7:57.40 | 86725 | 122539
5 | 27:13.65 | 12:44.60 | 122540 | 179899
6 | 39:58.50 | 4:32.50 | 179900 | 200349
7 | 44:31.25 | 8:59.27 | 200350 | 240801
8 | 53:30.52 | 12:31.55 | 240802 | 297181
9 | 66:02.32 | 1:43.55 | 297182 | 304961
Range status and errors
Selected range
Filename C:\HQ Rips\Louis Sclavis - Objets Bruts.wav
Peak level 99.9 %
Range quality 100.0 %
Copy CRC ADBCACDF
Copy OK
No errors occurred
End of status report
 
Содержание индексной карты (.CUE)
REM GENRE Jazz
REM DATE 1999
REM DISCID 6C0FE209
REM COMMENT "ExactAudioCopy v0.99pb3"
PERFORMER "Louis Sclavis"
TITLE "Objets Bruts"
FILE "Louis Sclavis - Objets Bruts.wav" WAVE
TRACK 01 AUDIO
TITLE "Bert"
PERFORMER "Louis Sclavis"
INDEX 01 00:00:00
TRACK 02 AUDIO
TITLE "Sensible"
PERFORMER "Louis Sclavis"
INDEX 00 03:19:07
INDEX 01 03:21:25
TRACK 03 AUDIO
TITLE "Derniers regards"
PERFORMER "Louis Sclavis"
INDEX 01 13:09:65
TRACK 04 AUDIO
TITLE "Qumran"
PERFORMER "Louis Sclavis"
INDEX 00 19:11:47
INDEX 01 19:16:25
TRACK 05 AUDIO
TITLE "Bafouee"
PERFORMER "Louis Sclavis"
INDEX 00 27:10:27
INDEX 01 27:13:65
TRACK 06 AUDIO
TITLE "Nandri"
PERFORMER "Louis Sclavis"
INDEX 00 39:55:67
INDEX 01 39:58:50
TRACK 07 AUDIO
TITLE "Weather Is Changing"
PERFORMER "Louis Sclavis"
INDEX 00 44:28:67
INDEX 01 44:31:25
TRACK 08 AUDIO
TITLE "Seconde"
PERFORMER "Louis Sclavis"
INDEX 00 53:28:42
INDEX 01 53:30:52
TRACK 09 AUDIO
TITLE "Beata"
PERFORMER "Louis Sclavis"
INDEX 01 66:02:32
 
Отчет CUETools
[CUETools log; Date: 10.04.2013 1:36:33; Version: 2.1.4]
[CTDB TOCID: TDxuadUhI4bU2EbcUejPXFjTgyQ-] found.
Track | CTDB Status
1 | (1/1) Accurately ripped
2 | (1/1) Accurately ripped
3 | (1/1) Accurately ripped
4 | (1/1) Accurately ripped
5 | (1/1) Accurately ripped
6 | (1/1) Accurately ripped
7 | (1/1) Accurately ripped
8 | (1/1) Accurately ripped
9 | (1/1) Accurately ripped
[AccurateRip ID: 0016fdf1-00ac6ccd-6c0fe209] found.
Track [ CRC | V2 ] Status
01 [35e0ed2d|254628f1] (3+0/3) Accurately ripped
02 [574157c3|92b2177a] (3+0/3) Accurately ripped
03 [c4ac44bd|c1711087] (3+0/3) Accurately ripped
04 [cdca9694|f1635c6e] (3+0/3) Accurately ripped
05 [de08d8e0|3fbc0eaf] (3+0/3) Accurately ripped
06 [bf75162b|f54686d7] (2+0/2) Accurately ripped
07 [892e7404|5add6c8a] (3+0/3) Accurately ripped
08 [486e90fa|1d911762] (3+0/3) Accurately ripped
09 [cbde7fc2|4cacf7b6] (3+0/3) Accurately ripped
Track Peak [ CRC32 ] [W/O NULL] [ LOG ]
-- 99,9 [4DB50ED2] [ADBCACDF] W/O NULL
01 95,6 [B36F8298] [1238AE75]
02 97,9 [D5148AA0] [CE7DE957]
03 99,9 [B74F24B8] [96A53B92]
04 99,9 [B04E6597] [8895B5C2]
05 97,6 [30BB345A] [8BEADAAC]
06 94,4 [C4198417] [05654D10]
07 92,4 [97F3580C] [31343472]
08 97,9 [0AF72D65] [2E3B2840]
09 97,0 [3C7027CA] [62B1380B]
 
Об альбоме (сборнике)
Louis Sclavis (b. Lyon, France, February 2, 1953) is a French jazz musician. He performs on clarinet, bass clarinet, and soprano saxophone in a variety of contexts, including jazz and free jazz. His music shows great creativity and a lively sense of humor.
Sclavis began his musical education at the conservatoire de Lyon at age 9, where he studied clarinet. He began performing with the Lyon Workshop, where he met Michel Portal and Bernard Lubat. He then joined the Brotherhood of Breath of Chris McGregor, and later the Henri Texier quartet.
He began his work as a leader in 1987, with his first album Chine. The track Duguesclin has actually been a hit in France, due to its lively, middle-age inspiration. In 1995, he created, along with Henri Texier and Aldo Romano, a trio named the African trio which achieved considerable success, even outside of the French jazz community. In November 2000, at the Festival 'Écouter Voir' in Lyons, Sclavis first met Quatuor Habanera, with whom he collaborated with on their third album, L'engrenage (2006).
He frequently performs with the cellist Ernst Reijseger and was one of the first to combine jazz with French folk music, working most prominently with the hurdy-gurdy player Valentin Clastrier.
The present CD was issued by Musica Jazz Magazin in 2000. 9 tracks recorder from 1995 to 1998.
 
Состав
Louis Sclavis - soprano saxophone (#1,3), bass clarinet (#2,4-8), clarinet (#5-7,9)
Jean Luc Cappozzo - trumpet (#6)
Bruno Chevillon - double-bass (#1-3,5,8,9)
Dominique Pifarély - violin (#2,5,8,9)
Marc Ducret - guitar (#2,5,8,9)
Vincent Courtois - cello (#6)
Ernst Reijseger - cello (#7)
François Merville - drums (#1,3)
#1,3: registrazione e missaggio di Gérard de Haro, Studios La Buissonne, Perne-les-Fontaines.
#2,5,8,9: registrazione dal vivo di Phil Boursier.
#4: registrazione dal vivo di Louis Sclavis.
#6: musiche originali per lo spettacolo Nandri della Compagnie Théâtre "Image Aiguë". Registrazione di Gérard de Haro, Studios La Buissonne, Perne-les-Fontaines.
#7: registrazione dal vivo di Ernst Reijseger.
Any questions -> support@pro-jazz.com. По всем вопросам пишите -> support@pro-jazz.com
10:49
206
Нет комментариев. Ваш будет первым!