Вы используете незарегистрированную версию компонента "Вкладки"!

Поиск

(Avant-Garde Jazz) John Medeski - A Different Time - 2013, FLAC (tracks+.cue), lossless

(Avant-Garde Jazz) John Medeski - A Different Time - 2013, FLAC (tracks+.cue), lossless
Треклист:
John Medeski - A Different Time
Жанр: Avant-Garde Jazz
Год издания: 2013
Издатель (лейбл): Okeh
Страна: США
Аудиокодек: FLAC (*.flac)
Тип рипа: tracks+.cue
Битрейт аудио: lossless
Продолжительность: 41:34
Источник (релизер): finfry419 (what)
Наличие сканов в содержимом раздачи: сетевые
Треклист:
01. A Different Time (Medeski) - 4:33
02. I'm Falling in Love Again (Nelson) - 5:44
03. His Eye Is on the Sparrow (Gabriel-Martin) - 6:18
04. Ran (Medeski) - 1:54
05. Graveyard Fields (Medeski) - 6:07
06. Luz Marina (Medeski) - 5:35
07. Waiting at the Gate (Medeski) - 2:30
08. Lacrima (Medeski) - 3:55
09. Otis (Medeski) - 4:58
Состав:
John Medeski - solo piano
Recorded at the Waterfront Studios, New York.
 
Лог создания рипа
Exact Audio Copy V1.0 beta 2 from 29. April 2011
EAC extraction logfile from 8. April 2013, 0:36
John Medeski / A Different Time
Used drive : HP DVD Writer 1170d Adapter: 2 ID: 1
Read mode : Secure
Utilize accurate stream : Yes
Defeat audio cache : Yes
Make use of C2 pointers : No
Read offset correction : 6
Overread into Lead-In and Lead-Out : No
Fill up missing offset samples with silence : Yes
Delete leading and trailing silent blocks : No
Null samples used in CRC calculations : Yes
Used interface : Native Win32 interface for Win NT & 2000
Gap handling : Appended to previous track
Used output format : User Defined Encoder
Selected bitrate : 1024 kBit/s
Quality : High
Add ID3 tag : No
Command line compressor : C:\Program Files\Exact Audio Copy\Flac\flac.exe
Additional command line options : -8 -V -T "ARTIST=%artist%" -T "TITLE=%title%" -T "ALBUM=%albumtitle%" -T "DATE=%year%" -T "TRACKNUMBER=%tracknr%" -T "GENRE=%genre%" -T "PERFORMER=%albuminterpret%" -T "COMPOSER=%composer%" %haslyrics%--tag-from-file=LYRICS
TOC of the extracted CD
Track | Start | Length | Start sector | End sector
---------------------------------------------------------
1 | 0:00.00 | 4:32.38 | 0 | 20437
2 | 4:32.38 | 5:43.60 | 20438 | 46222
3 | 10:16.23 | 6:18.13 | 46223 | 74585
4 | 16:34.36 | 1:53.54 | 74586 | 83114
5 | 18:28.15 | 6:06.69 | 83115 | 110633
6 | 24:35.09 | 5:34.71 | 110634 | 135754
7 | 30:10.05 | 2:30.35 | 135755 | 147039
8 | 32:40.40 | 3:54.56 | 147040 | 164645
9 | 36:35.21 | 4:58.30 | 164646 | 187025
Track 1
Filename C:\Users\Public\EAC rips\John Medeaski - A Different Time\1 - 01 - A Different Time.wav
Pre-gap length 0:00:02.00
Peak level 69.5 %
Extraction speed 4.9 X
Track quality 100.0 %
Test CRC 9C6D3CF6
Copy CRC 9C6D3CF6
Track not present in AccurateRip database
Copy OK
Track 2
Filename C:\Users\Public\EAC rips\John Medeaski - A Different Time\1 - 02 - I'm I'm Falling in Love Again.wav
Peak level 90.3 %
Extraction speed 5.6 X
Track quality 100.0 %
Test CRC D2EBA900
Copy CRC D2EBA900
Track not present in AccurateRip database
Copy OK
Track 3
Filename C:\Users\Public\EAC rips\John Medeaski - A Different Time\1 - 03 - His Eye Is On The Sparrow.wav
Peak level 97.7 %
Extraction speed 5.4 X
Track quality 99.9 %
Test CRC DBF110FA
Copy CRC DBF110FA
Track not present in AccurateRip database
Copy OK
Track 4
Filename C:\Users\Public\EAC rips\John Medeaski - A Different Time\1 - 04 - Ran.wav
Peak level 97.7 %
Extraction speed 5.3 X
Track quality 100.0 %
Test CRC 204DD069
Copy CRC 204DD069
Track not present in AccurateRip database
Copy OK
Track 5
Filename C:\Users\Public\EAC rips\John Medeaski - A Different Time\1 - 05 - Graveyard Filds.wav
Peak level 97.7 %
Extraction speed 6.8 X
Track quality 100.0 %
Test CRC FA89B938
Copy CRC FA89B938
Track not present in AccurateRip database
Copy OK
Track 6
Filename C:\Users\Public\EAC rips\John Medeaski - A Different Time\1 - 06 - Luz Marina.wav
Peak level 81.1 %
Extraction speed 6.2 X
Track quality 99.9 %
Test CRC FB4F1244
Copy CRC FB4F1244
Track not present in AccurateRip database
Copy OK
Track 7
Filename C:\Users\Public\EAC rips\John Medeaski - A Different Time\1 - 07 - Waiting At The Gate.wav
Peak level 79.3 %
Extraction speed 6.6 X
Track quality 100.0 %
Test CRC 07553471
Copy CRC 07553471
Track not present in AccurateRip database
Copy OK
Track 8
Filename C:\Users\Public\EAC rips\John Medeaski - A Different Time\1 - 08 - Lacrima.wav
Peak level 88.5 %
Extraction speed 7.3 X
Track quality 100.0 %
Test CRC 43B0D7CB
Copy CRC 43B0D7CB
Track not present in AccurateRip database
Copy OK
Track 9
Filename C:\Users\Public\EAC rips\John Medeaski - A Different Time\1 - 09 - Otis.wav
Peak level 93.6 %
Extraction speed 7.9 X
Track quality 100.0 %
Test CRC 4B62596D
Copy CRC 4B62596D
Track not present in AccurateRip database
Copy OK
None of the tracks are present in the AccurateRip database
No errors occurred
End of status report
==== Log checksum 421BDF23D8C87C50086BF2DB0DD9FB565FB031369F183FF3154112333684240A ====
 
Содержание индексной карты (.CUE)
REM DATE 2013
REM DISCID 7D09BD09
REM COMMENT "ExactAudioCopy v1.0b2"
PERFORMER "John Medeski"
TITLE "A Different Time"
FILE "01 - A Different Time.wav" WAVE
TRACK 01 AUDIO
TITLE "A Different Time"
PERFORMER "John Medeski"
ISRC H29JF1200008
INDEX 01 00:00:00
FILE "02 - I'm Falling in Love Again.wav" WAVE
TRACK 02 AUDIO
TITLE "I'm Falling in Love Again"
PERFORMER "John Medeski"
ISRC H29JF1200009
INDEX 01 00:00:00
FILE "03 - His Eye Is on the Sparrow.wav" WAVE
TRACK 03 AUDIO
TITLE "His Eye Is on the Sparrow"
PERFORMER "John Medeski"
ISRC H29JF1200010
INDEX 01 00:00:00
FILE "04 - Ran.wav" WAVE
TRACK 04 AUDIO
TITLE "Ran"
PERFORMER "John Medeski"
ISRC H29JF1200011
INDEX 01 00:00:00
FILE "05 - Graveyard Fields.wav" WAVE
TRACK 05 AUDIO
TITLE "Graveyard Fields"
PERFORMER "John Medeski"
ISRC H29JF1200012
INDEX 01 00:00:00
FILE "06 - Luz Marina.wav" WAVE
TRACK 06 AUDIO
TITLE "Luz Marina"
PERFORMER "John Medeski"
ISRC H29JF1200013
INDEX 01 00:00:00
FILE "07 - Waiting at the Gate.wav" WAVE
TRACK 07 AUDIO
TITLE "Waiting at the Gate"
PERFORMER "John Medeski"
ISRC H29JF1200014
INDEX 01 00:00:00
FILE "08 - Lacrima.wav" WAVE
TRACK 08 AUDIO
TITLE "Lacrima"
PERFORMER "John Medeski"
ISRC H29JF1200015
INDEX 01 00:00:00
FILE "09 - Otis.wav" WAVE
TRACK 09 AUDIO
TITLE "Otis"
PERFORMER "John Medeski"
ISRC H29JF1200015
INDEX 01 00:00:00
 
Review by Thom Jurek
John Medeski's solo piano debut was a long time coming. Recorded for Sony Masterworks' revived Okeh imprint, it's a 41-minute showcase of a pianist we've not really encountered -- at least at this length -- before. At the suggestion of engineer and producer Henry Hirsch, Medeski cut this set using a seven-foot, 1925 French Gaveau piano. The instrument has a very different construct than the Steinways he usually plays. According to his liner essay, "The Gaveau responds to a more delicate, nuanced touch, requiring the player's full attention in every moment to control the sound. One must sing with the fingers." That's an apt description. Recorded live to tape using two microphones -- one ribbon, one tube -- processed through a vintage console, one can hear the space between the keys, inside the box, and in the room. The music is largely meditative, but is also thoroughly engaging due to the variety of material. It opens with the title track, one of three improvisations here. In it, one can hear just how curious Medeski is about melody, allowing a couple of them to unfold through his use of chords, and short trills encounter one another and achieve an artful synthesis. He practices restraint as he searches for the timbral layers beneath what he articulates and moves along them. This is followed by two wonderfully chosen covers. The first is a simply stated take on Willie Nelson's "I'm Falling in Love Again," with its querying intro and earthy high register. The second is Charlie Gabriel's standard "His Eye Is on the Sparrow"; full of reverential dignity and elegance, it's articulated with a jazzman's keen ear. "Waiting at the Gate" offers a view of Medeski as a young composer as interpreted through the savvy veteran -- it was written when he was in his teens. The use of a rumbling lower register in "Graveyard Fields" is where one can hear the pianist really "sing" on this instrument. Spontaneously composed, he finds his way quickly, listening intently even as his "voice" moves assuredly to express the hidden timbres and emotions. The set closes with a solo version of Medeski, Martin & Wood's "Otis," which is more song, less jam. Removed from the original version's in-the-cut bassline, and snare and hi-hat rhythms, the grace in this ballad shines through unencumbered. A Different Time may be the first solo entry for Medeski, but given its quality, it hopefully isn't the last.
Any questions -> support@pro-jazz.com. По всем вопросам пишите -> support@pro-jazz.com
10:50
173
Нет комментариев. Ваш будет первым!