Вы используете незарегистрированную версию компонента "Вкладки"!

Поиск

(Avant-Garde Jazz, Modern Creative) Conference Call (Gebhard Ullmann, Michael Jefry Stevens, Joe Fonda, Matt Wilson) - Final Answer - 2002, FLAC (image+.cue), lossless

(Avant-Garde Jazz, Modern Creative) Conference Call (Gebhard Ullmann, Michael Jefry Stevens, Joe Fonda, Matt Wilson) - Final Answer - 2002, FLAC (image+.cue), lossless
Треклист:
Conference Call / Final Answer
Жанр: Avant-Garde Jazz, Modern Creative
Страна-производитель диска: Italy
Год издания диска: 2002
Издатель (лейбл): Soul Note
Номер по каталогу: 121391-2
Аудиокодек: FLAC (*.flac)
Тип рипа: image+.cue
Битрейт аудио: lossless
Продолжительность: 61:22
Источник (релизер): cd
Наличие сканов в содержимом раздачи: нет
Треклист:
1 Dreierlei 7:48
2 You're There, I Am Here 12:43
3 Could This Be a Polka? 6:46
4 Final Answer 5:10
5 Gone Too Soon 6:53
6 Mala Dr'ole 4:23
7 Conference Call 9:54
8 Liquid Cage 5:32
9 Final Answer (Is This Your...?) 2:09
 
Лог создания рипа
Exact Audio Copy V1.0 beta 2 from 29. April 2011
EAC extraction logfile from 13. October 2011, 9:46
Conference Call / Final Answer
Used drive : Optiarc DVD RW AD-7170A Adapter: 0 ID: 0
Read mode : Secure
Utilize accurate stream : Yes
Defeat audio cache : Yes
Make use of C2 pointers : No
Read offset correction : 48
Overread into Lead-In and Lead-Out : No
Fill up missing offset samples with silence : Yes
Delete leading and trailing silent blocks : No
Null samples used in CRC calculations : Yes
Used interface : Native Win32 interface for Win NT & 2000
Used output format : User Defined Encoder
Selected bitrate : 320 kBit/s
Quality : High
Add ID3 tag : No
Command line compressor : C:\Program Files\Exact Audio Copy\Flac\flac.exe
Additional command line options : -V -8 -T "Date=%year%" -T "Genre=%genre%" %source%
TOC of the extracted CD
Track | Start | Length | Start sector | End sector
---------------------------------------------------------
1 | 0:00.00 | 7:48.27 | 0 | 35126
2 | 7:48.27 | 12:43.27 | 35127 | 92378
3 | 20:31.54 | 6:46.21 | 92379 | 122849
4 | 27:18.00 | 5:10.47 | 122850 | 146146
5 | 32:28.47 | 6:53.58 | 146147 | 177179
6 | 39:22.30 | 4:23.62 | 177180 | 196966
7 | 43:46.17 | 9:54.35 | 196967 | 241551
8 | 53:40.52 | 5:32.28 | 241552 | 266479
9 | 59:13.05 | 2:09.65 | 266480 | 276219
Range status and errors
Selected range
Filename C:\EAC\Downloads\Conference Call - Final Answer.wav
Peak level 99.9 %
Extraction speed 5.5 X
Range quality 100.0 %
Test CRC 1535161F
Copy CRC 1535161F
Copy OK
No errors occurred
AccurateRip summary
Track 1 cannot be verified as accurate (confidence 1) [5965BBE0], AccurateRip returned [D8DCFF7F] (AR v2)
Track 2 cannot be verified as accurate (confidence 1) [EAA8917D], AccurateRip returned [3DD85755] (AR v2)
Track 3 cannot be verified as accurate (confidence 1) [AF27E6B0], AccurateRip returned [A653822B] (AR v2)
Track 4 cannot be verified as accurate (confidence 1) [133F0F31], AccurateRip returned [D5061CC1] (AR v2)
Track 5 cannot be verified as accurate (confidence 1) [9277F64E], AccurateRip returned [91169234] (AR v2)
Track 6 cannot be verified as accurate (confidence 1) [F90EFB63], AccurateRip returned [7A5EE199] (AR v2)
Track 7 cannot be verified as accurate (confidence 1) [53E1C264], AccurateRip returned [38EA6F7B] (AR v2)
Track 8 cannot be verified as accurate (confidence 1) [65CA6CAA], AccurateRip returned [95A63B88] (AR v2)
Track 9 cannot be verified as accurate (confidence 1) [E258F344], AccurateRip returned [76242632] (AR v2)
No tracks could be verified as accurate
You may have a different pressing from the one(s) in the database
End of status report
==== Log checksum AE02D92330CB5DE53E0BBC09B53E8FA732DE9372CF88BA57E448273B56A4B24A ====
 
Содержание индексной карты (.CUE)
REM GENRE Jazz
REM DATE 2002
REM DISCID 6C0E6209
REM COMMENT "ExactAudioCopy v1.0b2"
PERFORMER "Conference Call"
TITLE "Final Answer"
FILE "Conference Call - Final Answer.flac" WAVE
TRACK 01 AUDIO
TITLE "Dreierlei"
PERFORMER "Conference Call"
ISRC 000000000000
INDEX 01 00:00:00
TRACK 02 AUDIO
TITLE "You're There, I Am here"
PERFORMER "Conference Call"
ISRC 000000000000
INDEX 01 07:48:27
TRACK 03 AUDIO
TITLE "Could This Be A Polka ?"
PERFORMER "Conference Call"
ISRC 000000000000
INDEX 01 20:31:54
TRACK 04 AUDIO
TITLE "Final Answer"
PERFORMER "Conference Call"
ISRC 000000000000
INDEX 01 27:18:00
TRACK 05 AUDIO
TITLE "Gone Too Soon"
PERFORMER "Conference Call"
ISRC 000000000000
INDEX 01 32:28:47
TRACK 06 AUDIO
TITLE "Mala Dr'ole"
PERFORMER "Conference Call"
ISRC 000000000000
INDEX 01 39:22:30
TRACK 07 AUDIO
TITLE "Conference Call"
PERFORMER "Conference Call"
ISRC 000000000000
INDEX 01 43:46:17
TRACK 08 AUDIO
TITLE "Liquid Cage"
PERFORMER "Conference Call"
ISRC 000000000000
INDEX 01 53:40:52
TRACK 09 AUDIO
TITLE "Final Answer (Is This Your ...?)"
PERFORMER "Conference Call"
ISRC 000000000000
INDEX 01 59:13:05
Доп. информация: Recording Date: May 16, 2000
 
Об альбоме (сборнике)
Conference Call is a quartet made up of reed and woodwind master Gebhard Ullmann, bassist Joe Fonda, the criminally under-recorded pianist Michael Jefry Stevens, and drummer Matt Wilson. This date is not a session by a group of musicians who've adopted a moniker, but a full-on working band who rehearses, composes, and plays together as often as it can since each member is a working soloist in his own right. The prime directive here is, not unexpectedly, Ullmann's intense and fluid sense of off-kilter lyricism. His seamless approach to the horn and staggered sense of open harmonics and tonal structuralism are ever-present. What is surprising is his pairing with Stevens on the front line. Stevens is a knotty pianist whose influences are Cecil Taylor, Bill Evans, Andrew Hill, McCoy Tyner and Horace Silver. His stunning architectural renderings of vast, previously unshaped chords; minor shadings; and furious ostinato are tremendous solo gifts, but in this ensemble, they create a wide and deep floor for not only Ullmann as a soloist, but for the rhythm section as well. What's more, Stevens provides the necessary punch and clamor for the band to swing unencumbered by their considerably complex improvisational style, which is often slipped inside a scored section or bridge. A fine example is "Could This Be a Polka," an effortless series of off-minor piano phrases strung together by the bassline and loped into a melody by Ullmann's gorgeous restraint and willingness to turn the harmony inside out in an even exchange with the impressionistically beautiful melody. Elsewhere, the band's theme, written by Ullmann, features all of the band's intensity and tension in a furiously paced, yet wonderfully rendered melodic architecture of tonal inquiry and multi-scalar invention. But it is Stevens' shimmering balladry on "Liquid Cage" that brings all of the band's influences into play. There is the sense of silence and tension as compositional elements a la Morton Feldman, the notion of tonality itself as a construct of not only sonic dimension, but metaphysical space as well. The idea that rhythm can exist in a melody this intricate and subtle is revolutionary, but Fonda and Wilson carve out a space in inner space and inform and extend the improvisational structures that emanate from the heart of Stevens' gloriously restrained pianism. This is a remarkable record with a surprise at the end that will leave the listener wondering why this band isn't headlining festivals all over the world.
 
Состав
Gebhard Ullmann Clarinet (Bass), Sax (Soprano)
Michael Jefry Stevens Piano
Joe Fonda Bass
Matt Wilson Drums
По всем вопросам пишите личное сообщение пользователю M0p94ok.
17:27
258
Нет комментариев. Ваш будет первым!