Поиск

(Avant-Garde, Contemporary Jazz) Klaus Konig Orchestra - At the End of the Universe (Hommage a Douglas Adams) - 1991, FLAC (image+.cue), lossless

(Avant-Garde, Contemporary Jazz) Klaus Konig Orchestra - At the End of the Universe (Hommage a Douglas Adams) - 1991, FLAC (image+.cue), lossless
Треклист:
Klaus Konig Orchestra / At the End of the Universe (Hommage a Douglas Adams)
Жанр: Avant-Garde, Contemporary Jazz
Страна-производитель диска: Germany
Год издания диска: 1991
Издатель (лейбл): enja
Номер по каталогу: 6078 2
Аудиокодек: FLAC (*.flac)
Тип рипа: image+.cue
Битрейт аудио: lossless
Продолжительность: 64-43
Источник (релизер): Собственный рип с оригинального диска
Наличие сканов в содержимом раздачи: да (спасибо за помощь Einstein@) - 2 больших файла-картинки в раздаче - это постер, вложенный в альбом
Треклист:
1. Overture: Introducing Arthur Dent (Conique/Konig)
2. Scene 1: Prostetnic Vogon Jeltz (Conique/Konig)
3. Scene 2: Marvin's Song (Conique/Konig)
4. Scene 3: Deep Thought (Conique/Konig)
5. Scene 4: The Babel Fish (Conique/Konig)
6. Scene 5: The Pan Galactic Gargle Blaster... (Conique/Konig)
7. Scene 6: The Earth (Conique/Konig)
8. Scene 7: The Restaraunt at the End of the... (Conique/Konig)
 
Лог создания рипа
Exact Audio Copy V1.0 beta 2 from 29. April 2011
EAC extraction logfile from 13. October 2011, 15:28
Klaus König Orchestra / At the End of the Universe - Hommage à Douglas Adams
Used drive : Optiarc DVD RW AD-7243S Adapter: 3 ID: 0
Read mode : Secure
Utilize accurate stream : Yes
Defeat audio cache : Yes
Make use of C2 pointers : No
Read offset correction : 48
Overread into Lead-In and Lead-Out : No
Fill up missing offset samples with silence : Yes
Delete leading and trailing silent blocks : No
Null samples used in CRC calculations : Yes
Used interface : Native Win32 interface for Win NT & 2000
Used output format : Internal WAV Routines
Sample format : 44.100 Hz; 16 Bit; Stereo
TOC of the extracted CD
Track | Start | Length | Start sector | End sector
---------------------------------------------------------
1 | 0:00.33 | 3:27.72 | 33 | 15629
2 | 3:28.30 | 5:52.30 | 15630 | 42059
3 | 9:20.60 | 7:07.43 | 42060 | 74127
4 | 16:28.28 | 10:35.00 | 74128 | 121752
5 | 27:03.28 | 12:07.07 | 121753 | 176284
6 | 39:10.35 | 4:18.45 | 176285 | 195679
7 | 43:29.05 | 7:57.28 | 195680 | 231482
8 | 51:26.33 | 13:17.25 | 231483 | 291282
Range status and errors
Selected range
Filename C:\Documents and Settings\aeh\Рабочий стол\xyz\At the End of the Universe - Hommage a Douglas Adams\Klaus Konig Orchestra - At the End of the Universe - Hommage a Douglas Adams.wav
Peak level 90.3 %
Extraction speed 4.3 X
Range quality 99.9 %
Test CRC 7B4624AC
Copy CRC 7B4624AC
Copy OK
No errors occurred
End of status report
==== Log checksum D0210DE0CC6EB5702A011E3E0C7DEB3B298FC8D71B3EC9BB891E7D9566118EC0 ====
 
Содержание индексной карты (.CUE)
REM GENRE Jazz
REM DATE 1991
REM DISCID 5B0F2B08
REM COMMENT "ExactAudioCopy v1.0b2"
PERFORMER "Klaus Konig Orchestra"
TITLE "At the End of the Universe - Hommage a Douglas Adams"
FILE "Klaus Konig Orchestra - At the End of the Universe - Hommage a Douglas Adams.wav" WAVE
TRACK 01 AUDIO
TITLE "Introducing Arthur Dent"
PERFORMER "Klaus Konig Orchestra"
INDEX 00 00:00:00
INDEX 01 00:00:33
TRACK 02 AUDIO
TITLE "Prostetnic Vogon Jeltz"
PERFORMER "Klaus Konig Orchestra"
INDEX 00 03:19:53
INDEX 01 03:28:30
TRACK 03 AUDIO
TITLE "Marvin's Song"
PERFORMER "Klaus Konig Orchestra"
INDEX 01 09:20:60
TRACK 04 AUDIO
TITLE "Deep Thought"
PERFORMER "Klaus Konig Orchestra"
INDEX 01 16:28:28
TRACK 05 AUDIO
TITLE "The Babel Fish"
PERFORMER "Klaus Konig Orchestra"
INDEX 00 26:57:43
INDEX 01 27:03:28
TRACK 06 AUDIO
TITLE "The Pan Galactic Gargle Blaster (or Beeblebrox' Blues)"
PERFORMER "Klaus Konig Orchestra"
INDEX 01 39:10:35
TRACK 07 AUDIO
TITLE "The Earth"
PERFORMER "Klaus Konig Orchestra"
INDEX 01 43:29:05
TRACK 08 AUDIO
TITLE "The Restaurant at the End of the Universe (includes Trillian's Dance)"
PERFORMER "Klaus Konig Orchestra"
INDEX 00 51:14:68
INDEX 01 51:26:33
INDEX 02 56:10:33
INDEX 03 59:35:00
INDEX 04 64:11:18
 
Состав
Klaus König - conductor
Kenny Wheeler - trumpet, flugelhorn
Reiner Winterschladen - trumpet
Conrad Bauer - trombone
Louis Sclavis - clarinet, bass clarinet
Jane Ira Bloom - soprano saxophone
Matthias Schubert - oboe, tenor saxophone
Wollie Kaiser - flute, contrabass clarinet, baritone saxophone, bass saxophone
Frank Gratkowski - piccolo, alto saxophone
Horst Grabosch - alto horn
Michel Massot - tuba
Dieter Manderscheid - bass, cello
Simon Nabatov - piano
Tim Wells - bass
John Betsch - drums
Tom Rainey - drums
По всем вопросам пишите личное сообщение пользователю M0p94ok.
17:28
186
Нет комментариев. Ваш будет первым!